Die Ärzte – Jazz Ist Anders (Enhanced)




No Cover available

Artist: Die Ärzte
Year: 2007
Genre: Punk
Notes: Discogs
Add. Notes: Enhanced
Watch Songs on: YouTube
Cover incl.: Yes
Encoder: FLAC
Bitrate: ~1000 kBit/s (44.1 kHz/16 Bit/s)
Log & Cue incl.: Yes/Yes
Size: 434,5 MB
Password: “slam” (without ” “)


All Downloads/Hosters are compatible

Download 1
KatFile.com
Turbobit.net
FileFactory.com
Rapidgator.net
Download 2
KatFile.com
Turbobit.net
FileFactory.com
Rapidgator.net

Tracklist:

1-1 Himmelblau 3:16
1-2 Lied Vom Scheitern 3:29
1-3 Breit 3:14
1-4 Lasse Redn 2:49
1-5 Die Ewige Maitresse 2:24
1-6 Junge 3:07
1-7 Nur Einen Kuss 4:25
1-8 Perfekt 2:35
1-9 Heulerei 2:13
1-10 Licht Am Ende Des Sarges 2:47
1-11 Niedliches Liebeslied 3:40
1-12 Deine Freundin (Wäre Mir Zu Anstrengend) 2:12
1-13 Allein 3:50
1-14 Tu Das Nicht 3:52
1-15 Living Hell 3:41
1-16 Vorbei Ist Vorbei 3:04

2-0 Nimm Es Wie Ein Mann (a.k.a. Kurt Cobain) 2:04
2-1 Wir Sind Die Besten 2:29
2-2 Wir Waren Die Besten 4:14
2-3 Wir Sind Die Lustigsten 4:35

EAC-Log, CUE-Sheed & NFO:

Click to open spoiler
Exact Audio Copy V0.99 prebeta 5 from 4. May 2009

EAC extraction logfile from 21. March 2010, 20:12

Die Arzte / Jazz ist anders

Used drive : HL-DT-STDVDRAM GSA-4040B Adapter: 0 ID: 1

Read mode : Secure
Utilize accurate stream : Yes
Defeat audio cache : Yes
Make use of C2 pointers : No

Read offset correction : 667
Overread into Lead-In and Lead-Out : No
Fill up missing offset samples with silence : Yes
Delete leading and trailing silent blocks : No
Null samples used in CRC calculations : Yes
Used interface : Native Win32 interface for Win NT & 2000
Gap handling : Appended to previous track

Used output format : User Defined Encoder
Selected bitrate : 1024 kBit/s
Quality : High
Add ID3 tag : No
Command line compressor : C:\Program Files\Exact Audio Copy\Flac\flac.exe
Additional command line options : -8 -V -T “ARTIST=%a” -T “TITLE=%t” -T “ALBUM=%g” -T “DATE=%y” -T “TRACKNUMBER=%n” -T “GENRE=%m” -T “COMMENT=ripped with eac 0.99 prebeta 5, secure mode, test and copy, encoded with flac-1.2.1b, -8” %s

TOC of the extracted CD

Track | Start | Length | Start sector | End sector
———————————————————
1 | 0:00.00 | 3:16.10 | 0 | 14709
2 | 3:16.10 | 3:29.14 | 14710 | 30398
3 | 6:45.24 | 3:14.47 | 30399 | 44995
4 | 9:59.71 | 2:49.51 | 44996 | 57721
5 | 12:49.47 | 2:24.15 | 57722 | 68536
6 | 15:13.62 | 3:07.40 | 68537 | 82601
7 | 18:21.27 | 4:25.07 | 82602 | 102483
8 | 22:46.34 | 2:35.62 | 102484 | 114170
9 | 25:22.21 | 2:13.10 | 114171 | 124155
10 | 27:35.31 | 2:47.53 | 124156 | 136733
11 | 30:23.09 | 3:40.56 | 136734 | 153289
12 | 34:03.65 | 2:13.33 | 153290 | 163297
13 | 36:17.23 | 3:50.04 | 163298 | 180551
14 | 40:07.27 | 3:52.11 | 180552 | 197962
15 | 43:59.38 | 3:41.08 | 197963 | 214545
16 | 47:40.46 | 3:04.54 | 214546 | 228399

Track 1

Filename D:\Lossless_Music\Die Arzte\2007 – Jazz ist anders\01 – Himmelblau.wav

Pre-gap length 0:00:02.00

Peak level 99.8 %
Track quality 99.9 %
Test CRC BD2097CD
Copy CRC BD2097CD
Accurately ripped (confidence 200) [5F5F9919]
Copy OK

Track 2

Filename D:\Lossless_Music\Die Arzte\2007 – Jazz ist anders\02 – Lied vom Scheitern.wav

Peak level 100.0 %
Track quality 99.9 %
Test CRC 4A72F99C
Copy CRC 4A72F99C
Accurately ripped (confidence 200) [33D75B34]
Copy OK

Track 3

Filename D:\Lossless_Music\Die Arzte\2007 – Jazz ist anders\03 – Breit.wav

Peak level 93.8 %
Track quality 100.0 %
Test CRC F6B4BAB7
Copy CRC F6B4BAB7
Accurately ripped (confidence 200) [31F239D9]
Copy OK

Track 4

Filename D:\Lossless_Music\Die Arzte\2007 – Jazz ist anders\04 – Lasse redn.wav

Peak level 99.7 %
Track quality 99.9 %
Test CRC 1F8442CE
Copy CRC 1F8442CE
Accurately ripped (confidence 200) [007EBBA2]
Copy OK

Track 5

Filename D:\Lossless_Music\Die Arzte\2007 – Jazz ist anders\05 – Die ewige Maitresse.wav

Peak level 100.0 %
Track quality 100.0 %
Test CRC 155EF3B6
Copy CRC 155EF3B6
Accurately ripped (confidence 200) [55A8FEE3]
Copy OK

Track 6

Filename D:\Lossless_Music\Die Arzte\2007 – Jazz ist anders\06 – Junge.wav

Peak level 99.8 %
Track quality 100.0 %
Test CRC 3E3202C3
Copy CRC 3E3202C3
Accurately ripped (confidence 200) [B1D16A42]
Copy OK

Track 7

Filename D:\Lossless_Music\Die Arzte\2007 – Jazz ist anders\07 – Nur einen Kuss.wav

Peak level 96.9 %
Track quality 100.0 %
Test CRC 1373C5A7
Copy CRC 1373C5A7
Accurately ripped (confidence 200) [9B7F10BE]
Copy OK

Track 8

Filename D:\Lossless_Music\Die Arzte\2007 – Jazz ist anders\08 – Perfekt.wav

Peak level 99.9 %
Track quality 100.0 %
Test CRC 6EFBD33D
Copy CRC 6EFBD33D
Accurately ripped (confidence 200) [E301852D]
Copy OK

Track 9

Filename D:\Lossless_Music\Die Arzte\2007 – Jazz ist anders\09 – Heulerei.wav

Peak level 100.0 %
Track quality 99.9 %
Test CRC EE81655D
Copy CRC EE81655D
Accurately ripped (confidence 200) [A808F394]
Copy OK

Track 10

Filename D:\Lossless_Music\Die Arzte\2007 – Jazz ist anders\10 – Licht am Ende des Sarges.wav

Peak level 98.9 %
Track quality 99.9 %
Test CRC 2902DCF3
Copy CRC 2902DCF3
Accurately ripped (confidence 200) [2648A89D]
Copy OK

Track 11

Filename D:\Lossless_Music\Die Arzte\2007 – Jazz ist anders\11 – Niedliches Liebeslied.wav

Peak level 96.1 %
Track quality 100.0 %
Test CRC E58C08A5
Copy CRC E58C08A5
Accurately ripped (confidence 200) [2ECDCDDC]
Copy OK

Track 12

Filename D:\Lossless_Music\Die Arzte\2007 – Jazz ist anders\12 – Deine Freundin (ware mir zu anstrengend).wav

Peak level 97.2 %
Track quality 100.0 %
Test CRC F33882A4
Copy CRC F33882A4
Accurately ripped (confidence 200) [6F0C8A30]
Copy OK

Track 13

Filename D:\Lossless_Music\Die Arzte\2007 – Jazz ist anders\13 – Allein.wav

Pre-gap length 0:00:01.02

Peak level 100.0 %
Track quality 100.0 %
Test CRC 67A295F0
Copy CRC 67A295F0
Accurately ripped (confidence 200) [B82DF735]
Copy OK

Track 14

Filename D:\Lossless_Music\Die Arzte\2007 – Jazz ist anders\14 – Tu das nicht.wav

Peak level 98.5 %
Track quality 100.0 %
Test CRC 65C8FBA7
Copy CRC 65C8FBA7
Accurately ripped (confidence 200) [097F5444]
Copy OK

Track 15

Filename D:\Lossless_Music\Die Arzte\2007 – Jazz ist anders\15 – Living Hell.wav

Peak level 99.5 %
Track quality 100.0 %
Test CRC 617D4820
Copy CRC 617D4820
Accurately ripped (confidence 200) [5DBBA27E]
Copy OK

Track 16

Filename D:\Lossless_Music\Die Arzte\2007 – Jazz ist anders\16 – Vorbei ist vorbei.wav

Peak level 99.4 %
Track quality 100.0 %
Test CRC B1414A4D
Copy CRC B1414A4D
Accurately ripped (confidence 200) [7A1A64A6]
Copy OK

All tracks accurately ripped

No errors occurred

End of status report

Exact Audio Copy V0.99 prebeta 5 from 4. May 2009

EAC extraction logfile from 29. December 2009, 17:20

Die Ärzte / Jazz ist anders (Bonus CD)

Used drive : Optiarc DVD RW AD-7560S Adapter: 1 ID: 0

Read mode : Secure
Utilize accurate stream : Yes
Defeat audio cache : Yes
Make use of C2 pointers : No

Read offset correction : 6
Overread into Lead-In and Lead-Out : No
Fill up missing offset samples with silence : Yes
Delete leading and trailing silent blocks : No
Null samples used in CRC calculations : Yes
Used interface : Native Win32 interface for Win NT & 2000
Gap handling : Appended to previous track

Used output format : User Defined Encoder
Selected bitrate : 320 kBit/s
Quality : High
Add ID3 tag : No
Command line compressor : C:\Program Files\Codecs\FLAC\flac.exe
Additional command line options : -V -5 -T “Artist=%a” -T “Title=%t” -T “Album=%g” -T “Date=%y” -T “Tracknumber=%n” -T “Genre=%m” %s -o %d

TOC of the extracted CD

Track | Start | Length | Start sector | End sector
———————————————————
1 | 2:04.15 | 2:28.57 | 9315 | 20471
2 | 4:32.72 | 4:14.32 | 20472 | 39553
3 | 8:47.29 | 4:34.56 | 39554 | 60159

Track 1

Filename D:\Musik\Die Ärzte\2007 – Jazz ist anders (Bonus CD)\01 – Die Ärzte – Wir sind die Besten.wav

Pre-gap length 0:02:06.15

Peak level 99.8 %
Track quality 99.9 %
Test CRC CDFACBF5
Copy CRC CDFACBF5
Accurately ripped (confidence 86) [994AF1C2]
Copy OK

Track 2

Filename D:\Musik\Die Ärzte\2007 – Jazz ist anders (Bonus CD)\02 – Die Ärzte – Wir waren die Besten.wav

Peak level 99.8 %
Track quality 100.0 %
Test CRC C01ECDAC
Copy CRC C01ECDAC
Accurately ripped (confidence 84) [83E7192A]
Copy OK

Track 3

Filename D:\Musik\Die Ärzte\2007 – Jazz ist anders (Bonus CD)\03 – Die Ärzte – Wir sind die Lustigsten.wav

Peak level 99.0 %
Track quality 100.0 %
Test CRC 7448E87D
Copy CRC 7448E87D
Accurately ripped (confidence 83) [AE8E6519]
Copy OK

All tracks accurately ripped

No errors occurred

End of status report
REM GENRE “Punk Rock”
REM DATE 2007
REM DISCID D60BE510
REM COMMENT “ExactAudioCopy v0.99pb5”
PERFORMER “Die Arzte”
TITLE “Jazz ist anders”
FILE “01 – Himmelblau.wav” WAVE
TRACK 01 AUDIO
TITLE “Himmelblau”
PERFORMER “Die Arzte”
INDEX 01 00:00:00
FILE “02 – Lied vom Scheitern.wav” WAVE
TRACK 02 AUDIO
TITLE “Lied vom Scheitern”
PERFORMER “Die Arzte”
INDEX 01 00:00:00
FILE “03 – Breit.wav” WAVE
TRACK 03 AUDIO
TITLE “Breit”
PERFORMER “Die Arzte”
INDEX 01 00:00:00
FILE “04 – Lasse redn.wav” WAVE
TRACK 04 AUDIO
TITLE “Lasse redn”
PERFORMER “Die Arzte”
INDEX 01 00:00:00
FILE “05 – Die ewige Maitresse.wav” WAVE
TRACK 05 AUDIO
TITLE “Die ewige Maitresse”
PERFORMER “Die Arzte”
INDEX 01 00:00:00
FILE “06 – Junge.wav” WAVE
TRACK 06 AUDIO
TITLE “Junge”
PERFORMER “Die Arzte”
INDEX 01 00:00:00
FILE “07 – Nur einen Kuss.wav” WAVE
TRACK 07 AUDIO
TITLE “Nur einen Kuss”
PERFORMER “Die Arzte”
INDEX 01 00:00:00
FILE “08 – Perfekt.wav” WAVE
TRACK 08 AUDIO
TITLE “Perfekt”
PERFORMER “Die Arzte”
INDEX 01 00:00:00
FILE “09 – Heulerei.wav” WAVE
TRACK 09 AUDIO
TITLE “Heulerei”
PERFORMER “Die Arzte”
INDEX 01 00:00:00
FILE “10 – Licht am Ende des Sarges.wav” WAVE
TRACK 10 AUDIO
TITLE “Licht am Ende des Sarges”
PERFORMER “Die Arzte”
INDEX 01 00:00:00
FILE “11 – Niedliches Liebeslied.wav” WAVE
TRACK 11 AUDIO
TITLE “Niedliches Liebeslied”
PERFORMER “Die Arzte”
INDEX 01 00:00:00
FILE “12 – Deine Freundin (ware mir zu anstrengend).wav” WAVE
TRACK 12 AUDIO
TITLE “Deine Freundin (ware mir zu anstrengend)”
PERFORMER “Die Arzte”
INDEX 01 00:00:00
TRACK 13 AUDIO
TITLE “Allein”
PERFORMER “Die Arzte”
INDEX 00 02:12:31
FILE “13 – Allein.wav” WAVE
INDEX 01 00:00:00
FILE “14 – Tu das nicht.wav” WAVE
TRACK 14 AUDIO
TITLE “Tu das nicht”
PERFORMER “Die Arzte”
INDEX 01 00:00:00
FILE “15 – Living Hell.wav” WAVE
TRACK 15 AUDIO
TITLE “Living Hell”
PERFORMER “Die Arzte”
INDEX 01 00:00:00
FILE “16 – Vorbei ist vorbei.wav” WAVE
TRACK 16 AUDIO
TITLE “Vorbei ist vorbei”
PERFORMER “Die Arzte”
INDEX 01 00:00:00

REM GENRE “Punk Rock”
REM DATE 2007
REM DISCID 2602A603
REM COMMENT “ExactAudioCopy v0.99pb5”
PERFORMER “Die Arzte”
TITLE “Jazz ist anders (Bonus CD)”
FILE “00 – Die Arzte – Nimm es wie ein Mann (a.k.a. Kurt Cobain).flac” WAVE
TRACK 01 AUDIO
TITLE “Wir sind die Besten”
PERFORMER “Die Arzte”
INDEX 00 00:00:00
FILE “01 – Die Arzte – Wir sind die Besten.flac” WAVE
INDEX 01 00:00:00
FILE “02 – Die Arzte – Wir waren die Besten.flac” WAVE
TRACK 02 AUDIO
TITLE “Wir waren die Besten”
PERFORMER “Die Arzte”
INDEX 01 00:00:00
FILE “03 – Die Arzte – Wir sind die Lustigsten.flac” WAVE
TRACK 03 AUDIO
TITLE “Wir sind die Lustigsten”
PERFORMER “Die Arzte”
INDEX 01 00:00:00


Leave a Reply

Your email address will not be published. Required fields are marked *

This site uses Akismet to reduce spam. Learn how your comment data is processed.