Die Ärzte – Jazz ist anders (Economy)




Artist: Die Ärzte
Year: 2007
Genre: Punk
Notes: Discogs
Add. Notes:
Cover incl.: Yes
Encoder: FLAC
Bitrate: ~900 kBit/s (44.1 kHz/16 Bit/s)
Log & Cue incl.: Yes
Size: 292,76 MB
Password: “slam” (without ” “)


All Downloads/Hosters are compatible

Download 1
Turbobit.net
Rapidgator.net
UploadEver.com
KatFile.com
UsersDrive.com
Download 2
Turbobit.net
Rapidgator.net
UploadEver.com
KatFile.com
UsersDrive.com
Download 3
Turbobit.net
Rapidgator.net
UploadEver.com
KatFile.com
UsersDrive.com

Tracklist:

1 - Himmelblau - 3:28
2 - Lied Vom Scheitern - 3:44
3 - Breit - 1:49
4 - Lasse Redn - 3:14
5 - Die Ewige Maitresse - 2:47
6 - Junge - 3:09
7 - Nur Einen Kuss - 2:41
8 - Perfekt - 2:50
9 - Heulerei - 2:22
10 - Licht Am Ende Des Sarges - 3:05
11 - Niedliches Liebeslied - 2:16
12 - Deine Freundin (Wäre Mir Zu Stressig) - 2:24
13 - Allein - 3:29
14 - Tu Das Nicht - 2:29
15 - Living Hell - 5:05
16.1 - Vorbei Ist Vorbei - 1:29
16.2 - (Silence) - 1:33
16.3 - Was Hat Der Junge Doch Für Nerven - 0:43

EAC-Log, CUE-Sheed & NFO:

Click to open spoiler
Exact Audio Copy V0.99 prebeta 5 from 4. May 2009

EAC extraction logfile from 4. October 2010, 22:14

Die Arzte / Jazz ist anders (Economy)

Used drive : HL-DT-STDVDRAM GSA-4040B Adapter: 0 ID: 1

Read mode : Secure
Utilize accurate stream : Yes
Defeat audio cache : Yes
Make use of C2 pointers : No

Read offset correction : 667
Overread into Lead-In and Lead-Out : No
Fill up missing offset samples with silence : Yes
Delete leading and trailing silent blocks : No
Null samples used in CRC calculations : Yes
Used interface : Native Win32 interface for Win NT & 2000
Gap handling : Appended to previous track

Used output format : User Defined Encoder
Selected bitrate : 1024 kBit/s
Quality : High
Add ID3 tag : No
Command line compressor : C:\Program Files\FLAC\flac.exe
Additional command line options : -8 -V -T “ARTIST=%a” -T “TITLE=%t” -T “ALBUM=%g” -T “DATE=%y” -T “TRACKNUMBER=%n” -T “GENRE=%m” -T “COMMENT=EAC FLAC -8” %s

TOC of the extracted CD

Track | Start | Length | Start sector | End sector
———————————————————
1 | 0:00.00 | 3:28.50 | 0 | 15649
2 | 3:28.50 | 3:44.32 | 15650 | 32481
3 | 7:13.07 | 1:49.14 | 32482 | 40670
4 | 9:02.21 | 3:14.16 | 40671 | 55236
5 | 12:16.37 | 2:47.71 | 55237 | 67832
6 | 15:04.33 | 3:09.61 | 67833 | 82068
7 | 18:14.19 | 2:41.00 | 82069 | 94143
8 | 20:55.19 | 2:50.20 | 94144 | 106913
9 | 23:45.39 | 2:22.46 | 106914 | 117609
10 | 26:08.10 | 3:05.73 | 117610 | 131557
11 | 29:14.08 | 2:16.32 | 131558 | 141789
12 | 31:30.40 | 2:24.64 | 141790 | 152653
13 | 33:55.29 | 3:29.08 | 152654 | 168336
14 | 37:24.37 | 2:29.24 | 168337 | 179535
15 | 39:53.61 | 5:05.30 | 179536 | 202440
16 | 44:59.16 | 3:45.46 | 202441 | 219361

Track 1

Filename D:\Lossless_Music\Die Arzte\01 – Studioalben\2007 – Jazz ist anders (Economy)\01. Die Arzte – Himmelblau.wav

Pre-gap length 0:00:02.00

Peak level 97.7 %
Track quality 100.0 %
Test CRC 705C3FF4
Copy CRC 705C3FF4
Accurately ripped (confidence 20) [3E4AFC76]
Copy OK

Track 2

Filename D:\Lossless_Music\Die Arzte\01 – Studioalben\2007 – Jazz ist anders (Economy)\02. Die Arzte – Lied vom Scheitern.wav

Pre-gap length 0:00:01.80

Peak level 97.7 %
Track quality 100.0 %
Test CRC 23F3419B
Copy CRC 23F3419B
Accurately ripped (confidence 20) [DA88D8F1]
Copy OK

Track 3

Filename D:\Lossless_Music\Die Arzte\01 – Studioalben\2007 – Jazz ist anders (Economy)\03. Die Arzte – Breit.wav

Peak level 97.7 %
Track quality 100.0 %
Test CRC 893104FF
Copy CRC 893104FF
Accurately ripped (confidence 20) [3782A361]
Copy OK

Track 4

Filename D:\Lossless_Music\Die Arzte\01 – Studioalben\2007 – Jazz ist anders (Economy)\04. Die Arzte – Lasse redn.wav

Peak level 100.0 %
Track quality 100.0 %
Test CRC 0F179AB3
Copy CRC 0F179AB3
Accurately ripped (confidence 20) [682869D1]
Copy OK

Track 5

Filename D:\Lossless_Music\Die Arzte\01 – Studioalben\2007 – Jazz ist anders (Economy)\05. Die Arzte – Die ewige Maitresse.wav

Pre-gap length 0:00:00.86

Peak level 97.7 %
Track quality 100.0 %
Test CRC B6AA8CFA
Copy CRC B6AA8CFA
Accurately ripped (confidence 20) [F4B65867]
Copy OK

Track 6

Filename D:\Lossless_Music\Die Arzte\01 – Studioalben\2007 – Jazz ist anders (Economy)\06. Die Arzte – Junge.wav

Peak level 97.7 %
Track quality 100.0 %
Test CRC 0297EF8F
Copy CRC 0297EF8F
Accurately ripped (confidence 21) [65FC7BF9]
Copy OK

Track 7

Filename D:\Lossless_Music\Die Arzte\01 – Studioalben\2007 – Jazz ist anders (Economy)\07. Die Arzte – Nur ein Kuss.wav

Peak level 100.0 %
Track quality 100.0 %
Test CRC 7398E43C
Copy CRC 7398E43C
Accurately ripped (confidence 20) [76BF8DC2]
Copy OK

Track 8

Filename D:\Lossless_Music\Die Arzte\01 – Studioalben\2007 – Jazz ist anders (Economy)\08. Die Arzte – Perfekt.wav

Peak level 98.8 %
Track quality 100.0 %
Test CRC 352512B3
Copy CRC 352512B3
Accurately ripped (confidence 20) [890103CB]
Copy OK

Track 9

Filename D:\Lossless_Music\Die Arzte\01 – Studioalben\2007 – Jazz ist anders (Economy)\09. Die Arzte – Heulerei.wav

Peak level 97.7 %
Track quality 100.0 %
Test CRC 09084157
Copy CRC 09084157
Accurately ripped (confidence 20) [8C749153]
Copy OK

Track 10

Filename D:\Lossless_Music\Die Arzte\01 – Studioalben\2007 – Jazz ist anders (Economy)\10. Die Arzte – Licht am Ende des Sarges.wav

Pre-gap length 0:00:00.64

Peak level 97.7 %
Track quality 99.9 %
Test CRC 1CF0A76D
Copy CRC 1CF0A76D
Accurately ripped (confidence 20) [7C94F43C]
Copy OK

Track 11

Filename D:\Lossless_Music\Die Arzte\01 – Studioalben\2007 – Jazz ist anders (Economy)\11. Die Arzte – Niedliches Liebeslied.wav

Peak level 97.7 %
Track quality 100.0 %
Test CRC 1A2A316A
Copy CRC 1A2A316A
Accurately ripped (confidence 20) [7AA5B3E9]
Copy OK

Track 12

Filename D:\Lossless_Music\Die Arzte\01 – Studioalben\2007 – Jazz ist anders (Economy)\12. Die Arzte – Deine Freundin (ware mir zu anstrengend).wav

Peak level 98.8 %
Track quality 100.0 %
Test CRC D654411B
Copy CRC D654411B
Accurately ripped (confidence 20) [CBA003AD]
Copy OK

Track 13

Filename D:\Lossless_Music\Die Arzte\01 – Studioalben\2007 – Jazz ist anders (Economy)\13. Die Arzte – Allein.wav

Pre-gap length 0:00:01.92

Peak level 97.7 %
Track quality 100.0 %
Test CRC 176AAA6D
Copy CRC 176AAA6D
Accurately ripped (confidence 20) [E9006AB5]
Copy OK

Track 14

Filename D:\Lossless_Music\Die Arzte\01 – Studioalben\2007 – Jazz ist anders (Economy)\14. Die Arzte – Tu das nicht.wav

Peak level 97.7 %
Track quality 100.0 %
Test CRC 575B1ED2
Copy CRC 575B1ED2
Accurately ripped (confidence 21) [532BFDD5]
Copy OK

Track 15

Filename D:\Lossless_Music\Die Arzte\01 – Studioalben\2007 – Jazz ist anders (Economy)\15. Die Arzte – Living Hell.wav

Peak level 98.8 %
Track quality 100.0 %
Test CRC 1B1C2B43
Copy CRC 1B1C2B43
Accurately ripped (confidence 20) [8349E2FF]
Copy OK

Track 16

Filename D:\Lossless_Music\Die Arzte\01 – Studioalben\2007 – Jazz ist anders (Economy)\16. Die Arzte – Vorbei ist vorbei.wav

Peak level 100.0 %
Track quality 100.0 %
Test CRC 8AD86457
Copy CRC 8AD86457
Accurately ripped (confidence 20) [3E8A449D]
Copy OK

All tracks accurately ripped

No errors occurred

End of status report

REM GENRE “Punk Rock”
REM DATE 2007
REM DISCID D70B6C10
REM COMMENT “ExactAudioCopy v0.99pb5”
PERFORMER “Die Arzte”
TITLE “Jazz ist anders (Economy)”
FILE “01. Die Arzte – Himmelblau.wav” WAVE
TRACK 01 AUDIO
TITLE “Himmelblau”
PERFORMER “Die Arzte”
INDEX 01 00:00:00
TRACK 02 AUDIO
TITLE “Lied vom Scheitern”
PERFORMER “Die Arzte”
INDEX 00 03:26:65
FILE “02. Die Arzte – Lied vom Scheitern.wav” WAVE
INDEX 01 00:00:00
FILE “03. Die Arzte – Breit.wav” WAVE
TRACK 03 AUDIO
TITLE “Breit”
PERFORMER “Die Arzte”
INDEX 01 00:00:00
FILE “04. Die Arzte – Lasse redn.wav” WAVE
TRACK 04 AUDIO
TITLE “Lasse redn”
PERFORMER “Die Arzte”
INDEX 01 00:00:00
TRACK 05 AUDIO
TITLE “Die ewige Maitresse”
PERFORMER “Die Arzte”
INDEX 00 03:13:26
FILE “05. Die Arzte – Die ewige Maitresse.wav” WAVE
INDEX 01 00:00:00
FILE “06. Die Arzte – Junge.wav” WAVE
TRACK 06 AUDIO
TITLE “Junge”
PERFORMER “Die Arzte”
INDEX 01 00:00:00
FILE “07. Die Arzte – Nur ein Kuss.wav” WAVE
TRACK 07 AUDIO
TITLE “Nur ein Kuss”
PERFORMER “Die Arzte”
INDEX 01 00:00:00
FILE “08. Die Arzte – Perfekt.wav” WAVE
TRACK 08 AUDIO
TITLE “Perfekt”
PERFORMER “Die Arzte”
INDEX 01 00:00:00
FILE “09. Die Arzte – Heulerei.wav” WAVE
TRACK 09 AUDIO
TITLE “Heulerei”
PERFORMER “Die Arzte”
INDEX 01 00:00:00
TRACK 10 AUDIO
TITLE “Licht am Ende des Sarges”
PERFORMER “Die Arzte”
INDEX 00 02:21:73
FILE “10. Die Arzte – Licht am Ende des Sarges.wav” WAVE
INDEX 01 00:00:00
FILE “11. Die Arzte – Niedliches Liebeslied.wav” WAVE
TRACK 11 AUDIO
TITLE “Niedliches Liebeslied”
PERFORMER “Die Arzte”
INDEX 01 00:00:00
FILE “12. Die Arzte – Deine Freundin (ware mir zu anstrengend).wav” WAVE
TRACK 12 AUDIO
TITLE “Deine Freundin (ware mir zu anstrengend)”
PERFORMER “Die Arzte”
INDEX 01 00:00:00
TRACK 13 AUDIO
TITLE “Allein”
PERFORMER “Die Arzte”
INDEX 00 02:22:70
FILE “13. Die Arzte – Allein.wav” WAVE
INDEX 01 00:00:00
FILE “14. Die Arzte – Tu das nicht.wav” WAVE
TRACK 14 AUDIO
TITLE “Tu das nicht”
PERFORMER “Die Arzte”
INDEX 01 00:00:00
FILE “15. Die Arzte – Living Hell.wav” WAVE
TRACK 15 AUDIO
TITLE “Living Hell”
PERFORMER “Die Arzte”
INDEX 01 00:00:00
FILE “16. Die Arzte – Vorbei ist vorbei.wav” WAVE
TRACK 16 AUDIO
TITLE “Vorbei ist vorbei”
PERFORMER “Die Arzte”
INDEX 01 00:00:00


Leave a Reply

Your email address will not be published. Required fields are marked *

This site uses Akismet to reduce spam. Learn how your comment data is processed.