Die Ärzte – Ist das alles?




Artist: Die Ärzte
Year: 1987
Genre: Punk
Notes: Discogs
Add. Notes:
Cover incl.: Yes
Encoder: FLAC
Bitrate: ~900 kBit/s (44.1 kHz/16 Bit/s)
Log & Cue incl.: Yes
Size: 329 MB
Password: “slam” (without ” “)


All Downloads/Hosters are compatible

Download 1
KatFile.com
Rapidgator.net
Turbobit.net
FileFactory.com
Download 2
KatFile.com
Rapidgator.net
Turbobit.net
FileFactory.com

Tracklist:

1 - Gehn Wie Ein Ägypter - 2:22
2 - Du Willst Mich Küssen - 3:09
3 - 2000 Mädchen - 3:57
4 - Mysteryland (Remix) - 3:59
5 - Zu Spät (Maxi-Version) - 6:51
6 - El Cattivo (1987 Bad Boy-Mix) - 
3:13
7 - Radio Brennt - 2:41
8 - Alleine In Der Nacht - 2:45
9 - Buddy Holly's Brille - 3:36
10 - Dein Vampyr (Remix) - 3:13
11 - Erna P. - 2:29
12 - Wie Am Ersten Tag (Remix) - 
3:41
13 - Ist Das Alles? (Maxi Remix) - 
5:33

EAC-Log, CUE-Sheed & NFO:

Click to open spoiler
Exact Audio Copy V0.99 prebeta 5 from 4. May 2009

EAC extraction logfile from 5. June 2009, 16:57

Die Ärzte / Ist das alles? (13 Höhepunkte mit den Ärzten)

Used drive : TSSTcorpCD/DVDW SH-S183A Adapter: 1 ID: 1

Read mode : Secure
Utilize accurate stream : Yes
Defeat audio cache : Yes
Make use of C2 pointers : No

Read offset correction : 6
Overread into Lead-In and Lead-Out : No
Fill up missing offset samples with silence : Yes
Delete leading and trailing silent blocks : No
Null samples used in CRC calculations : Yes
Used interface : Native Win32 interface for Win NT & 2000
Gap handling : Appended to previous track

Used output format : User Defined Encoder
Selected bitrate : 320 kBit/s
Quality : High
Add ID3 tag : No
Command line compressor : C:\Program Files (x86)\Exact Audio Copy\Flac\flac.exe
Additional command line options : -8 -T “Artist=%a” -T “Title=%t” -T “Album=%g” -T “Date=%y” -T “Tracknumber=%n” -T “Genre=%m” %s -o %d

TOC of the extracted CD

Track | Start | Length | Start sector | End sector
———————————————————
1 | 0:00.00 | 2:22.00 | 0 | 10649
2 | 2:22.00 | 3:09.00 | 10650 | 24824
3 | 5:31.00 | 3:57.00 | 24825 | 42599
4 | 9:28.00 | 3:59.00 | 42600 | 60524
5 | 13:27.00 | 6:51.00 | 60525 | 91349
6 | 20:18.00 | 3:13.00 | 91350 | 105824
7 | 23:31.00 | 2:41.65 | 105825 | 117964
8 | 26:12.65 | 2:45.10 | 117965 | 130349
9 | 28:58.00 | 3:36.00 | 130350 | 146549
10 | 32:34.00 | 3:13.00 | 146550 | 161024
11 | 35:47.00 | 2:29.00 | 161025 | 172199
12 | 38:16.00 | 3:41.00 | 172200 | 188774
13 | 41:57.00 | 5:33.00 | 188775 | 213749

Track 1

Filename D:\Musik\+++ Neue Alben ++++\Die Ärzte (1987) Ist das alles (13 Höhepunkte mit den Ärzten)\01. Gehn wie ein Ägypter.wav

Pre-gap length 0:00:02.00

Peak level 94.7 %
Track quality 100.0 %
Test CRC 5977CE11
Copy CRC 5977CE11
Accurately ripped (confidence 2) [F4BAC895]
Copy OK

Track 2

Filename D:\Musik\+++ Neue Alben ++++\Die Ärzte (1987) Ist das alles (13 Höhepunkte mit den Ärzten)\02. Du willst mich küssen.wav

Peak level 94.5 %
Track quality 100.0 %
Test CRC 4D7968CD
Copy CRC 4D7968CD
Accurately ripped (confidence 2) [F516A69D]
Copy OK

Track 3

Filename D:\Musik\+++ Neue Alben ++++\Die Ärzte (1987) Ist das alles (13 Höhepunkte mit den Ärzten)\03. 2000 Mädchen.wav

Peak level 100.0 %
Track quality 100.0 %
Test CRC A1C391DD
Copy CRC A1C391DD
Accurately ripped (confidence 2) [7FE6DE38]
Copy OK

Track 4

Filename D:\Musik\+++ Neue Alben ++++\Die Ärzte (1987) Ist das alles (13 Höhepunkte mit den Ärzten)\04. Mysteryland (Remix).wav

Peak level 91.8 %
Track quality 100.0 %
Test CRC FF9E0463
Copy CRC FF9E0463
Accurately ripped (confidence 2) [52B68700]
Copy OK

Track 5

Filename D:\Musik\+++ Neue Alben ++++\Die Ärzte (1987) Ist das alles (13 Höhepunkte mit den Ärzten)\05. Zu spät (Maxi-Version).wav

Peak level 97.6 %
Track quality 100.0 %
Test CRC 9189AB76
Copy CRC 9189AB76
Accurately ripped (confidence 2) [D58ACE19]
Copy OK

Track 6

Filename D:\Musik\+++ Neue Alben ++++\Die Ärzte (1987) Ist das alles (13 Höhepunkte mit den Ärzten)\06. El Cattivo (1987 Bad Boy-Mix).wav

Peak level 93.5 %
Track quality 100.0 %
Test CRC CC5FBC36
Copy CRC CC5FBC36
Accurately ripped (confidence 2) [A58D4A44]
Copy OK

Track 7

Filename D:\Musik\+++ Neue Alben ++++\Die Ärzte (1987) Ist das alles (13 Höhepunkte mit den Ärzten)\07. Radio brennt.wav

Peak level 100.0 %
Track quality 100.0 %
Test CRC E4E9FED8
Copy CRC E4E9FED8
Accurately ripped (confidence 2) [15E17DAC]
Copy OK

Track 8

Filename D:\Musik\+++ Neue Alben ++++\Die Ärzte (1987) Ist das alles (13 Höhepunkte mit den Ärzten)\08. Alleine in der Nacht.wav

Peak level 81.6 %
Track quality 100.0 %
Test CRC C95D0C0C
Copy CRC C95D0C0C
Accurately ripped (confidence 2) [EEC74D75]
Copy OK

Track 9

Filename D:\Musik\+++ Neue Alben ++++\Die Ärzte (1987) Ist das alles (13 Höhepunkte mit den Ärzten)\09. Buddy Holly’s Brille.wav

Peak level 84.9 %
Track quality 100.0 %
Test CRC 6C56A432
Copy CRC 6C56A432
Accurately ripped (confidence 2) [145C084B]
Copy OK

Track 10

Filename D:\Musik\+++ Neue Alben ++++\Die Ärzte (1987) Ist das alles (13 Höhepunkte mit den Ärzten)\10. Dein Vampyr (Remix).wav

Peak level 97.0 %
Track quality 100.0 %
Test CRC C50FE44F
Copy CRC C50FE44F
Accurately ripped (confidence 2) [AB345A5A]
Copy OK

Track 11

Filename D:\Musik\+++ Neue Alben ++++\Die Ärzte (1987) Ist das alles (13 Höhepunkte mit den Ärzten)\11. Erna P..wav

Peak level 81.5 %
Track quality 100.0 %
Test CRC FF7B9A2F
Copy CRC FF7B9A2F
Accurately ripped (confidence 2) [271DF500]
Copy OK

Track 12

Filename D:\Musik\+++ Neue Alben ++++\Die Ärzte (1987) Ist das alles (13 Höhepunkte mit den Ärzten)\12. Wie am ersten Tag (Remix).wav

Peak level 98.6 %
Track quality 100.0 %
Test CRC 6FFA00B1
Copy CRC 6FFA00B1
Accurately ripped (confidence 2) [F940258F]
Copy OK

Track 13

Filename D:\Musik\+++ Neue Alben ++++\Die Ärzte (1987) Ist das alles (13 Höhepunkte mit den Ärzten)\13. Ist das alles (Maxi Remix).wav

Peak level 100.0 %
Track quality 100.0 %
Test CRC 29495BBF
Copy CRC 29495BBF
Accurately ripped (confidence 2) [322B51B7]
Copy OK

All tracks accurately ripped

No errors occurred

End of status report

REM GENRE Deutschpunk
REM DATE 1987
REM DISCID A70B220D
REM COMMENT “ExactAudioCopy v0.99pb5”
PERFORMER “Die Arzte”
TITLE “Ist das alles? (13 Hohepunkte mit den Arzten)”
FILE “01. Gehn wie ein Agypter.flac” WAVE
TRACK 01 AUDIO
TITLE “Gehn wie ein Agypter”
PERFORMER “Die Arzte”
INDEX 01 00:00:00
FILE “02. Du willst mich kussen.flac” WAVE
TRACK 02 AUDIO
TITLE “Du willst mich kussen”
PERFORMER “Die Arzte”
INDEX 01 00:00:00
FILE “03. 2000 Madchen.flac” WAVE
TRACK 03 AUDIO
TITLE “2000 Madchen”
PERFORMER “Die Arzte”
INDEX 01 00:00:00
FILE “04. Mysteryland (Remix).flac” WAVE
TRACK 04 AUDIO
TITLE “Mysteryland (Remix)”
PERFORMER “Die Arzte”
INDEX 01 00:00:00
FILE “05. Zu spat (Maxi-Version).flac” WAVE
TRACK 05 AUDIO
TITLE “Zu spat (Maxi-Version)”
PERFORMER “Die Arzte”
INDEX 01 00:00:00
FILE “06. El Cattivo (1987 Bad Boy-Mix).flac” WAVE
TRACK 06 AUDIO
TITLE “El Cattivo (1987 Bad Boy-Mix)”
PERFORMER “Die Arzte”
INDEX 01 00:00:00
FILE “07. Radio brennt.flac” WAVE
TRACK 07 AUDIO
TITLE “Radio brennt”
PERFORMER “Die Arzte”
INDEX 01 00:00:00
FILE “08. Alleine in der Nacht.flac” WAVE
TRACK 08 AUDIO
TITLE “Alleine in der Nacht”
PERFORMER “Die Arzte”
INDEX 01 00:00:00
FILE “09. Buddy Holly’s Brille.flac” WAVE
TRACK 09 AUDIO
TITLE “Buddy Holly’s Brille”
PERFORMER “Die Arzte”
INDEX 01 00:00:00
FILE “10. Dein Vampyr (Remix).flac” WAVE
TRACK 10 AUDIO
TITLE “Dein Vampyr (Remix)”
PERFORMER “Die Arzte”
INDEX 01 00:00:00
FILE “11. Erna P..flac” WAVE
TRACK 11 AUDIO
TITLE “Erna P.”
PERFORMER “Die Arzte”
INDEX 01 00:00:00
FILE “12. Wie am ersten Tag (Remix).flac” WAVE
TRACK 12 AUDIO
TITLE “Wie am ersten Tag (Remix)”
PERFORMER “Die Arzte”
INDEX 01 00:00:00
FILE “13. Ist das alles (Maxi Remix).flac” WAVE
TRACK 13 AUDIO
TITLE “Ist das alles? (Maxi Remix)”
PERFORMER “Die Arzte”
INDEX 01 00:00:00


Leave a Reply

Your email address will not be published. Required fields are marked *

This site uses Akismet to reduce spam. Learn how your comment data is processed.