Die Ärzte – Im Schatten der Ärzte




Artist: Die Ärzte
Year: 1985
Genre: Punk
Notes: Discogs
Add. Notes:
Cover incl.: Yes
Encoder: FLAC
Bitrate: ~900 kBit/s (44.1 kHz/16 Bit/s)
Log & Cue incl.: Yes
Size: 274 MB
Password: “slam” (without ” “)


All Downloads/Hosters are compatible

Download 1
KatFile.com
Rapidgator.net
Turbobit.net
FileFactory.com
Download 2
KatFile.com
Rapidgator.net
Turbobit.net
FileFactory.com

Tracklist:

Du Willst Mich Küssen
Dein Vampyr
Und Es Regnet
Alles
Rennen Nicht Laufen!
Wie Ein Kind
Wie Ein Kind (Reprise)
Wegen Dir
Die Antwort Bist Du
Buddy Holly's Brille
Käfer
Ich Weiss Nicht (Ob Es Liebe Ist)
Was Hat Der Junge Doch Für Nerven

EAC-Log, CUE-Sheed & NFO:

Click to open spoiler
Exact Audio Copy V0.99 prebeta 4 from 23. January 2008

EAC extraction logfile from 19. April 2009, 17:22

Die Ärzte / Im Schatten der Ärzte

Used drive : HL-DT-STDVDRAM GSA-4163B Adapter: 0 ID: 1

Read mode : Secure
Utilize accurate stream : Yes
Defeat audio cache : Yes
Make use of C2 pointers : No

Read offset correction : 667
Overread into Lead-In and Lead-Out : No
Fill up missing offset samples with silence : Yes
Delete leading and trailing silent blocks : No
Null samples used in CRC calculations : Yes
Used interface : Native Win32 interface for Win NT & 2000
Gap handling : Appended to previous track

Used output format : User Defined Encoder
Selected bitrate : 128 kBit/s
Quality : High
Add ID3 tag : No
Command line compressor : C:\Programme\Exact Audio Copy\Flac\flac.exe
Additional command line options : -V -8 -T “artist=%a” -T “title=%t” -T “album=%g” -T “date=%y” -T “tracknumber=%n” -T “genre=%m” %s

TOC of the extracted CD

Track | Start | Length | Start sector | End sector
———————————————————
1 | 0:00.00 | 3:13.37 | 0 | 14511
2 | 3:13.37 | 3:20.03 | 14512 | 29514
3 | 6:33.40 | 3:32.52 | 29515 | 45466
4 | 10:06.17 | 2:58.23 | 45467 | 58839
5 | 13:04.40 | 2:55.15 | 58840 | 71979
6 | 15:59.55 | 3:40.47 | 71980 | 88526
7 | 19:40.27 | 0:33.05 | 88527 | 91006
8 | 20:13.32 | 3:18.08 | 91007 | 105864
9 | 23:31.40 | 3:21.50 | 105865 | 120989
10 | 26:53.15 | 3:39.10 | 120990 | 137424
11 | 30:32.25 | 2:55.15 | 137425 | 150564
12 | 33:27.40 | 3:48.00 | 150565 | 167664
13 | 37:15.40 | 4:15.37 | 167665 | 186826

Track 1

Filename C:\EACrips\Die Aerzte – 1985 – Im Schatten der Aerzte\01 – Du willst mich kuessen.wav

Pre-gap length 0:00:02.00

Peak level 97.7 %
Track quality 100.0 %
Test CRC 777D3D8C
Copy CRC 777D3D8C
Accurately ripped (confidence 29) [C4EB9B11]
Copy OK

Track 2

Filename C:\EACrips\Die Aerzte – 1985 – Im Schatten der Aerzte\02 – Dein Vampyr.wav

Pre-gap length 0:00:02.60

Peak level 97.7 %
Track quality 100.0 %
Test CRC 00980D00
Copy CRC 00980D00
Accurately ripped (confidence 29) [E39ADC94]
Copy OK

Track 3

Filename C:\EACrips\Die Aerzte – 1985 – Im Schatten der Aerzte\03 – … und es regnet.wav

Pre-gap length 0:00:00.97

Peak level 97.7 %
Track quality 100.0 %
Test CRC 8526A2E3
Copy CRC 8526A2E3
Accurately ripped (confidence 28) [89EEFD64]
Copy OK

Track 4

Filename C:\EACrips\Die Aerzte – 1985 – Im Schatten der Aerzte\04 – Alles.wav

Pre-gap length 0:00:02.29

Peak level 97.7 %
Track quality 99.9 %
Test CRC 3DD7E91A
Copy CRC 3DD7E91A
Accurately ripped (confidence 29) [75DB73F8]
Copy OK

Track 5

Filename C:\EACrips\Die Aerzte – 1985 – Im Schatten der Aerzte\05 – Rennen nicht laufen!.wav

Pre-gap length 0:00:01.93

Peak level 97.7 %
Track quality 100.0 %
Test CRC 369FE07D
Copy CRC 369FE07D
Accurately ripped (confidence 29) [E5766E3E]
Copy OK

Track 6

Filename C:\EACrips\Die Aerzte – 1985 – Im Schatten der Aerzte\06 – Wie ein Kind.wav

Pre-gap length 0:00:01.93

Peak level 97.7 %
Track quality 100.0 %
Test CRC EB8AB385
Copy CRC EB8AB385
Accurately ripped (confidence 29) [4E7F7FA1]
Copy OK

Track 7

Filename C:\EACrips\Die Aerzte – 1985 – Im Schatten der Aerzte\07 – Wie ein Kind (Reprise).wav

Pre-gap length 0:00:03.96

Peak level 97.7 %
Track quality 100.0 %
Test CRC 77C3A568
Copy CRC 77C3A568
Accurately ripped (confidence 29) [8ED66111]
Copy OK

Track 8

Filename C:\EACrips\Die Aerzte – 1985 – Im Schatten der Aerzte\08 – Wegen dir.wav

Pre-gap length 0:00:03.33

Peak level 97.7 %
Track quality 100.0 %
Test CRC B5395FC7
Copy CRC B5395FC7
Accurately ripped (confidence 29) [0BC19EDC]
Copy OK

Track 9

Filename C:\EACrips\Die Aerzte – 1985 – Im Schatten der Aerzte\09 – Die Antwort bist Du.wav

Pre-gap length 0:00:02.77

Peak level 97.7 %
Track quality 100.0 %
Test CRC 607EF387
Copy CRC 607EF387
Accurately ripped (confidence 29) [804F5B56]
Copy OK

Track 10

Filename C:\EACrips\Die Aerzte – 1985 – Im Schatten der Aerzte\10 – Buddy Holly’s Brille.wav

Pre-gap length 0:00:02.73

Peak level 97.7 %
Track quality 99.9 %
Test CRC ABE17F27
Copy CRC ABE17F27
Accurately ripped (confidence 29) [99EA52E2]
Copy OK

Track 11

Filename C:\EACrips\Die Aerzte – 1985 – Im Schatten der Aerzte\11 – Kaefer.wav

Pre-gap length 0:00:01.90

Peak level 97.7 %
Track quality 100.0 %
Test CRC 9FE1178A
Copy CRC 9FE1178A
Accurately ripped (confidence 29) [EE63F54A]
Copy OK

Track 12

Filename C:\EACrips\Die Aerzte – 1985 – Im Schatten der Aerzte\12 – Ich weiss nicht (ob es Liebe ist).wav

Pre-gap length 0:00:01.40

Peak level 97.7 %
Track quality 100.0 %
Test CRC E8712CC8
Copy CRC E8712CC8
Accurately ripped (confidence 29) [5097B7A7]
Copy OK

Track 13

Filename C:\EACrips\Die Aerzte – 1985 – Im Schatten der Aerzte\13 – ‘Was hat der Junge doch fuer Nerven’.wav

Peak level 97.7 %
Track quality 100.0 %
Test CRC C6684721
Copy CRC C6684721
Accurately ripped (confidence 29) [AF1194E0]
Copy OK

All tracks accurately ripped

No errors occurred

——————

REM DISCID A909BB0D
REM COMMENT “ExactAudioCopy v0.99pb4”
PERFORMER “Die Arzte”
TITLE “Im Schatten der Arzte”
FILE “01 – Du willst mich kuessen.wav” WAVE
TRACK 01 AUDIO
TITLE “Du willst mich kuessen”
PERFORMER “Die Arzte”
INDEX 01 00:00:00
TRACK 02 AUDIO
TITLE “Dein Vampyr”
PERFORMER “Die Arzte”
INDEX 00 03:10:67
FILE “02 – Dein Vampyr.wav” WAVE
INDEX 01 00:00:00
TRACK 03 AUDIO
TITLE “… und es regnet”
PERFORMER “Die Arzte”
INDEX 00 03:19:05
FILE “03 – … und es regnet.wav” WAVE
INDEX 01 00:00:00
TRACK 04 AUDIO
TITLE “Alles”
PERFORMER “Die Arzte”
INDEX 00 03:30:30
FILE “04 – Alles.wav” WAVE
INDEX 01 00:00:00
TRACK 05 AUDIO
TITLE “Rennen nicht laufen!”
PERFORMER “Die Arzte”
INDEX 00 02:56:28
FILE “05 – Rennen nicht laufen!.wav” WAVE
INDEX 01 00:00:00
TRACK 06 AUDIO
TITLE “Wie ein Kind”
PERFORMER “Die Arzte”
INDEX 00 02:53:20
FILE “06 – Wie ein Kind.wav” WAVE
INDEX 01 00:00:00
TRACK 07 AUDIO
TITLE “Wie ein Kind (Reprise)”
PERFORMER “Die Arzte”
INDEX 00 03:36:50
FILE “07 – Wie ein Kind (Reprise).wav” WAVE
INDEX 01 00:00:00
TRACK 08 AUDIO
TITLE “Wegen dir”
PERFORMER “Die Arzte”
INDEX 00 00:29:55
FILE “08 – Wegen dir.wav” WAVE
INDEX 01 00:00:00
TRACK 09 AUDIO
TITLE “Die Antwort bist Du”
PERFORMER “Die Arzte”
INDEX 00 03:15:25
FILE “09 – Die Antwort bist Du.wav” WAVE
INDEX 01 00:00:00
TRACK 10 AUDIO
TITLE “Buddy Holly’s Brille”
PERFORMER “Die Arzte”
INDEX 00 03:18:70
FILE “10 – Buddy Holly’s Brille.wav” WAVE
INDEX 01 00:00:00
TRACK 11 AUDIO
TITLE “Kaefer”
PERFORMER “Die Arzte”
INDEX 00 03:37:17
FILE “11 – Kaefer.wav” WAVE
INDEX 01 00:00:00
TRACK 12 AUDIO
TITLE “Ich weiss nicht (ob es Liebe ist)”
PERFORMER “Die Arzte”
INDEX 00 02:53:60
FILE “12 – Ich weiss nicht (ob es Liebe ist).wav” WAVE
INDEX 01 00:00:00
FILE “13 – ‘Was hat der Junge doch fuer Nerven’.wav” WAVE
TRACK 13 AUDIO
TITLE “‘Was hat der Junge doch fuer Nerven'”
PERFORMER “Die Arzte”
INDEX 01 00:00:00
End of status report


Leave a Reply

Your email address will not be published. Required fields are marked *

This site uses Akismet to reduce spam. Learn how your comment data is processed.