Die Ärzte – Geräusch




Artist: Die Ärzte
Year: 2003
Genre: Punk
Notes: Discogs
Add. Notes:
Cover incl.: Yes
Encoder: FLAC
Bitrate: ~900 kBit/s (44.1 kHz/16 Bit/s)
Log & Cue incl.: Yes
Size: 689 MB
Password: “slam” (without ” “)


All Downloads/Hosters are compatible

Download 1
KatFile.com
Turbobit.net
FileFactory.com
Rapidgator.net
Download 2
KatFile.com
Turbobit.net
FileFactory.com
Rapidgator.net

Tracklist:

1-1 - Als Ich Den Punk Erfand ... - 
1:53
1-2 - System - 2:44
1-3 - T-Error - 3:37
1-4 - Nicht Allein - 5:19
1-5 - Dinge Von Denen - 3:57
1-6 - Der Grund - 2:54
1-7 - Geisterhaus - 3:49
1-8 - Ein Mann - 2:18
1-9 - Anders Als Beim Letzten Mal - 
4:17
1-10 - Ruhig Angehn - 3:24
1-11 - Jag Älskar Sverige! - 3:40
1-12 - Richtig Schön Evil - 3:21
1-13 - Schneller Leben - 3:03
2-1 - Unrockbar - 4:01
2-2 - Deine Schuld - 3:35
2-3 - Lovepower - 2:32
2-4 - Der Tag - 3:40
2-5 - Die Nacht - 5:02
2-6 - Nichts In Der Welt - 3:47
2-7 - Die Klügsten Männer Der Welt - 
3:58
2-8 - Piercing - 4:17
2-9 - Besserwisserboy - 3:41
2-10 - Anti-Zombie - 4:09
2-11 - Pro-Zombie - 2:08
2-12 - WAMMW - 1:51
2-13 - NichtWissen - 4:29

EAC-Log, CUE-Sheed & NFO:

Click to open spoiler
Exact Audio Copy V0.99 prebeta 5 from 4. May 2009

EAC extraction logfile from 21. March 2010, 22:18

Die Arzte / Gerausch

Used drive : HL-DT-STDVDRAM GSA-4040B Adapter: 0 ID: 1

Read mode : Secure
Utilize accurate stream : Yes
Defeat audio cache : Yes
Make use of C2 pointers : No

Read offset correction : 667
Overread into Lead-In and Lead-Out : No
Fill up missing offset samples with silence : Yes
Delete leading and trailing silent blocks : No
Null samples used in CRC calculations : Yes
Used interface : Native Win32 interface for Win NT & 2000
Gap handling : Appended to previous track

Used output format : User Defined Encoder
Selected bitrate : 1024 kBit/s
Quality : High
Add ID3 tag : No
Command line compressor : C:\Program Files\Exact Audio Copy\Flac\flac.exe
Additional command line options : -8 -V -T “ARTIST=%a” -T “TITLE=%t” -T “ALBUM=%g” -T “DATE=%y” -T “TRACKNUMBER=%n” -T “GENRE=%m” -T “COMMENT=ripped with eac 0.99 prebeta 5, secure mode, test and copy, encoded with flac-1.2.1b, -8” %s

TOC of the extracted CD

Track | Start | Length | Start sector | End sector
———————————————————
1 | 0:00.00 | 4:01.20 | 0 | 18094
2 | 4:01.20 | 3:35.06 | 18095 | 34225
3 | 7:36.26 | 2:31.72 | 34226 | 45622
4 | 10:08.23 | 3:48.30 | 45623 | 62752
5 | 13:56.53 | 5:01.03 | 62753 | 85330
6 | 18:57.56 | 3:47.70 | 85331 | 102425
7 | 22:45.51 | 3:57.61 | 102426 | 120261
8 | 26:43.37 | 4:17.09 | 120262 | 139545
9 | 31:00.46 | 3:40.33 | 139546 | 156078
10 | 34:41.04 | 4:09.20 | 156079 | 174773
11 | 38:50.24 | 2:08.11 | 174774 | 184384
12 | 40:58.35 | 1:51.29 | 184385 | 192738
13 | 42:49.64 | 4:58.61 | 192739 | 215149

Track 1

Filename D:\Lossless_Music\Die Arzte\01 – Studioalben\2003 – Gerausch\CD1\01 – Unrockbar.wav

Pre-gap length 0:00:02.00

Peak level 98.8 %
Track quality 100.0 %
Test CRC 57297791
Copy CRC 57297791
Accurately ripped (confidence 141) [93D09635]
Copy OK

Track 2

Filename D:\Lossless_Music\Die Arzte\01 – Studioalben\2003 – Gerausch\CD1\02 – Deine Schuld.wav

Pre-gap length 0:00:01.52

Peak level 98.8 %
Track quality 100.0 %
Test CRC 8A97E62E
Copy CRC 8A97E62E
Accurately ripped (confidence 143) [9F72D03D]
Copy OK

Track 3

Filename D:\Lossless_Music\Die Arzte\01 – Studioalben\2003 – Gerausch\CD1\03 – Lovepower.wav

Pre-gap length 0:00:00.17

Peak level 98.8 %
Track quality 100.0 %
Test CRC BB9122C2
Copy CRC BB9122C2
Accurately ripped (confidence 142) [5C7634AD]
Copy OK

Track 4

Filename D:\Lossless_Music\Die Arzte\01 – Studioalben\2003 – Gerausch\CD1\04 – Der Tag.wav

Peak level 98.8 %
Track quality 100.0 %
Test CRC 258C0DCF
Copy CRC 258C0DCF
Accurately ripped (confidence 141) [DB1DBF6B]
Copy OK

Track 5

Filename D:\Lossless_Music\Die Arzte\01 – Studioalben\2003 – Gerausch\CD1\05 – Die Nacht.wav

Peak level 98.8 %
Track quality 100.0 %
Test CRC E90031D5
Copy CRC E90031D5
Accurately ripped (confidence 139) [6BAC557B]
Copy OK

Track 6

Filename D:\Lossless_Music\Die Arzte\01 – Studioalben\2003 – Gerausch\CD1\06 – Nichts in der Welt.wav

Pre-gap length 0:00:04.93

Peak level 98.8 %
Track quality 100.0 %
Test CRC C1CC816B
Copy CRC C1CC816B
Accurately ripped (confidence 141) [20729577]
Copy OK

Track 7

Filename D:\Lossless_Music\Die Arzte\01 – Studioalben\2003 – Gerausch\CD1\07 – Die kluegsten Maenner der Welt.wav

Pre-gap length 0:00:01.20

Peak level 98.8 %
Track quality 100.0 %
Test CRC 295B768D
Copy CRC 295B768D
Accurately ripped (confidence 140) [E060B149]
Copy OK

Track 8

Filename D:\Lossless_Music\Die Arzte\01 – Studioalben\2003 – Gerausch\CD1\08 – Piercing.wav

Peak level 98.8 %
Track quality 100.0 %
Test CRC 48FEDD54
Copy CRC 48FEDD54
Accurately ripped (confidence 139) [15C82D78]
Copy OK

Track 9

Filename D:\Lossless_Music\Die Arzte\01 – Studioalben\2003 – Gerausch\CD1\09 – Besserwisserboy.wav

Pre-gap length 0:00:02.28

Peak level 98.8 %
Track quality 99.9 %
Test CRC 057724C5
Copy CRC 057724C5
Accurately ripped (confidence 138) [A780E390]
Copy OK

Track 10

Filename D:\Lossless_Music\Die Arzte\01 – Studioalben\2003 – Gerausch\CD1\10 – Anti-Zombie.wav

Pre-gap length 0:00:02.14

Peak level 98.8 %
Track quality 100.0 %
Test CRC 3326562A
Copy CRC 3326562A
Accurately ripped (confidence 138) [267571AD]
Copy OK

Track 11

Filename D:\Lossless_Music\Die Arzte\01 – Studioalben\2003 – Gerausch\CD1\11 – Pro-Zombie.wav

Peak level 98.8 %
Track quality 99.9 %
Test CRC EADFD203
Copy CRC EADFD203
Accurately ripped (confidence 136) [59431B91]
Copy OK

Track 12

Filename D:\Lossless_Music\Die Arzte\01 – Studioalben\2003 – Gerausch\CD1\12 – Wammw.wav

Pre-gap length 0:00:01.65

Peak level 98.8 %
Track quality 100.0 %
Test CRC 033DC431
Copy CRC 033DC431
Accurately ripped (confidence 138) [44FD0238]
Copy OK

Track 13

Filename D:\Lossless_Music\Die Arzte\01 – Studioalben\2003 – Gerausch\CD1\13 – Nichtwissen.wav

Pre-gap length 0:00:01.77

Peak level 98.8 %
Track quality 100.0 %
Test CRC BF078ADA
Copy CRC BF078ADA
Accurately ripped (confidence 134) [9E518B37]
Copy OK

All tracks accurately ripped

No errors occurred

End of status report

Exact Audio Copy V0.99 prebeta 5 from 4. May 2009

EAC extraction logfile from 22. March 2010, 17:44

Die Arzte / Gerausch

Used drive : HL-DT-STDVDRAM GSA-4040B Adapter: 0 ID: 1

Read mode : Secure
Utilize accurate stream : Yes
Defeat audio cache : Yes
Make use of C2 pointers : No

Read offset correction : 667
Overread into Lead-In and Lead-Out : No
Fill up missing offset samples with silence : Yes
Delete leading and trailing silent blocks : No
Null samples used in CRC calculations : Yes
Used interface : Native Win32 interface for Win NT & 2000
Gap handling : Appended to previous track

Used output format : User Defined Encoder
Selected bitrate : 1024 kBit/s
Quality : High
Add ID3 tag : No
Command line compressor : C:\Program Files\Exact Audio Copy\Flac\flac.exe
Additional command line options : -8 -V -T “ARTIST=%a” -T “TITLE=%t” -T “ALBUM=%g” -T “DATE=%y” -T “TRACKNUMBER=%n” -T “GENRE=%m” -T “COMMENT=ripped with eac 0.99 prebeta 5, secure mode, test and copy, encoded with flac-1.2.1b, -8” %s

TOC of the extracted CD

Track | Start | Length | Start sector | End sector
———————————————————
1 | 3:57.65 | 1:52.62 | 17840 | 26301
2 | 5:50.52 | 2:44.10 | 26302 | 38611
3 | 8:34.62 | 3:37.15 | 38612 | 54901
4 | 12:12.02 | 5:19.13 | 54902 | 78839
5 | 17:31.15 | 3:56.15 | 78840 | 96554
6 | 21:27.30 | 2:54.00 | 96555 | 109604
7 | 24:21.30 | 3:49.42 | 109605 | 126821
8 | 28:10.72 | 2:18.20 | 126822 | 137191
9 | 30:29.17 | 4:16.58 | 137192 | 156449
10 | 34:46.00 | 3:24.00 | 156450 | 171749
11 | 38:10.00 | 3:40.00 | 171750 | 188249
12 | 41:50.00 | 3:21.00 | 188250 | 203324
13 | 45:11.00 | 3:03.45 | 203325 | 217094

Track 1

Filename D:\Lossless_Music\Die Arzte\01 – Studioalben\2003 – Gerausch\CD2\01 – Als ich den Punk erfand ….wav

Pre-gap length 0:03:59.86

Peak level 99.9 %
Track quality 100.0 %
Test CRC AD470E1A
Copy CRC AD470E1A
Accurately ripped (confidence 142) [5D70E77C]
Copy OK

Track 2

Filename D:\Lossless_Music\Die Arzte\01 – Studioalben\2003 – Gerausch\CD2\02 – System.wav

Peak level 99.9 %
Track quality 100.0 %
Test CRC 1AABC083
Copy CRC 1AABC083
Accurately ripped (confidence 144) [F934FB08]
Copy OK

Track 3

Filename D:\Lossless_Music\Die Arzte\01 – Studioalben\2003 – Gerausch\CD2\03 – T-Error.wav

Peak level 99.9 %
Track quality 100.0 %
Test CRC 41FEC07D
Copy CRC 41FEC07D
Accurately ripped (confidence 144) [FE13E579]
Copy OK

Track 4

Filename D:\Lossless_Music\Die Arzte\01 – Studioalben\2003 – Gerausch\CD2\04 – Nicht allein.wav

Peak level 99.9 %
Track quality 100.0 %
Test CRC E86C26D5
Copy CRC E86C26D5
Accurately ripped (confidence 145) [57BF0B36]
Copy OK

Track 5

Filename D:\Lossless_Music\Die Arzte\01 – Studioalben\2003 – Gerausch\CD2\05 – Dinge von denen.wav

Peak level 99.9 %
Track quality 100.0 %
Test CRC 1969B055
Copy CRC 1969B055
Accurately ripped (confidence 139) [C461D24A]
Copy OK

Track 6

Filename D:\Lossless_Music\Die Arzte\01 – Studioalben\2003 – Gerausch\CD2\06 – Der Grund.wav

Peak level 99.9 %
Track quality 99.9 %
Test CRC D0D8B5AF
Copy CRC D0D8B5AF
Accurately ripped (confidence 141) [41A739F6]
Copy OK

Track 7

Filename D:\Lossless_Music\Die Arzte\01 – Studioalben\2003 – Gerausch\CD2\07 – Geisterhaus.wav

Peak level 99.9 %
Track quality 100.0 %
Test CRC C9DADE48
Copy CRC C9DADE48
Accurately ripped (confidence 144) [03A755D4]
Copy OK

Track 8

Filename D:\Lossless_Music\Die Arzte\01 – Studioalben\2003 – Gerausch\CD2\08 – Ein Mann.wav

Peak level 99.9 %
Track quality 100.0 %
Test CRC 9EE9AD36
Copy CRC 9EE9AD36
Accurately ripped (confidence 143) [1624E69E]
Copy OK

Track 9

Filename D:\Lossless_Music\Die Arzte\01 – Studioalben\2003 – Gerausch\CD2\09 – Anders als beim letzten Mal.wav

Peak level 99.9 %
Track quality 100.0 %
Test CRC 3FB7595C
Copy CRC 3FB7595C
Accurately ripped (confidence 141) [C38267F0]
Copy OK

Track 10

Filename D:\Lossless_Music\Die Arzte\01 – Studioalben\2003 – Gerausch\CD2\10 – Ruhig angehn.wav

Peak level 99.9 %
Track quality 100.0 %
Test CRC 00C15C04
Copy CRC 00C15C04
Accurately ripped (confidence 139) [D9FF2E97]
Copy OK

Track 11

Filename D:\Lossless_Music\Die Arzte\01 – Studioalben\2003 – Gerausch\CD2\11 – Jag alskar Sverige!.wav

Peak level 99.9 %
Track quality 100.0 %
Test CRC 711B8C70
Copy CRC 711B8C70
Accurately ripped (confidence 141) [66F37625]
Copy OK

Track 12

Filename D:\Lossless_Music\Die Arzte\01 – Studioalben\2003 – Gerausch\CD2\12 – Richtig schon evil.wav

Peak level 99.9 %
Track quality 100.0 %
Test CRC 599D6B52
Copy CRC 599D6B52
Accurately ripped (confidence 141) [5C3B0BC1]
Copy OK

Track 13

Filename D:\Lossless_Music\Die Arzte\01 – Studioalben\2003 – Gerausch\CD2\13 – Schneller leben.wav

Peak level 99.9 %
Track quality 100.0 %
Test CRC E94AF836
Copy CRC E94AF836
Accurately ripped (confidence 140) [28DDDFC1]
Copy OK

All tracks accurately ripped

No errors occurred

End of status report

————————————————————

Exact Audio Copy V0.99 prebeta 5 from 4. May 2009

EAC extraction logfile from 22. March 2010, 18:31

Die Arzte / Gerausch

Used drive : HL-DT-STDVDRAM GSA-4040B Adapter: 0 ID: 1

Read mode : Secure
Utilize accurate stream : Yes
Defeat audio cache : Yes
Make use of C2 pointers : No

Read offset correction : 667
Overread into Lead-In and Lead-Out : No
Fill up missing offset samples with silence : Yes
Delete leading and trailing silent blocks : No
Null samples used in CRC calculations : Yes
Used interface : Native Win32 interface for Win NT & 2000

Used output format : User Defined Encoder
Selected bitrate : 1024 kBit/s
Quality : High
Add ID3 tag : No
Command line compressor : C:\Program Files\Exact Audio Copy\Flac\flac.exe
Additional command line options : -8 -V -T “ARTIST=%a” -T “TITLE=%t” -T “ALBUM=%g” -T “DATE=%y” -T “TRACKNUMBER=%n” -T “GENRE=%m” -T “COMMENT=ripped with eac 0.99 prebeta 5, secure mode, test and copy, encoded with flac-1.2.1b, -8” %s

TOC of the extracted CD

Track | Start | Length | Start sector | End sector
———————————————————
1 | 3:57.65 | 1:52.62 | 17840 | 26301
2 | 5:50.52 | 2:44.10 | 26302 | 38611
3 | 8:34.62 | 3:37.15 | 38612 | 54901
4 | 12:12.02 | 5:19.13 | 54902 | 78839
5 | 17:31.15 | 3:56.15 | 78840 | 96554
6 | 21:27.30 | 2:54.00 | 96555 | 109604
7 | 24:21.30 | 3:49.42 | 109605 | 126821
8 | 28:10.72 | 2:18.20 | 126822 | 137191
9 | 30:29.17 | 4:16.58 | 137192 | 156449
10 | 34:46.00 | 3:24.00 | 156450 | 171749
11 | 38:10.00 | 3:40.00 | 171750 | 188249
12 | 41:50.00 | 3:21.00 | 188250 | 203324
13 | 45:11.00 | 3:03.45 | 203325 | 217094

Track 1, Index 0

Peak level 99.9 %
Track quality 99.9 %
Copy OK

Track 1, Index 1

Peak level 99.9 %
Track quality 100.0 %
Copy OK

AccurateRip summary

Track 1 accurately ripped (confidence 142) [5D70E77C]

All tracks accurately ripped

No errors occurred

End of status report

REM GENRE Punk
REM DATE 2003
REM DISCID A40B340D
REM COMMENT “ExactAudioCopy v0.99pb5”
PERFORMER “Die Arzte”
TITLE “Gerausch”
FILE “01 – Unrockbar.wav” WAVE
TRACK 01 AUDIO
TITLE “Unrockbar”
PERFORMER “Die Arzte”
INDEX 01 00:00:00
TRACK 02 AUDIO
TITLE “Deine Schuld”
PERFORMER “Die Arzte”
INDEX 00 03:59:56
FILE “02 – Deine Schuld.wav” WAVE
INDEX 01 00:00:00
TRACK 03 AUDIO
TITLE “Lovepower”
PERFORMER “Die Arzte”
INDEX 00 03:34:68
FILE “03 – Lovepower.wav” WAVE
INDEX 01 00:00:00
FILE “04 – Der Tag.wav” WAVE
TRACK 04 AUDIO
TITLE “Der Tag”
PERFORMER “Die Arzte”
INDEX 01 00:00:00
FILE “05 – Die Nacht.wav” WAVE
TRACK 05 AUDIO
TITLE “Die Nacht”
PERFORMER “Die Arzte”
INDEX 01 00:00:00
TRACK 06 AUDIO
TITLE “Nichts in der Welt”
PERFORMER “Die Arzte”
INDEX 00 04:56:08
FILE “06 – Nichts in der Welt.wav” WAVE
INDEX 01 00:00:00
TRACK 07 AUDIO
TITLE “Die kluegsten Maenner der Welt”
PERFORMER “Die Arzte”
INDEX 00 03:46:55
FILE “07 – Die kluegsten Maenner der Welt.wav” WAVE
INDEX 01 00:00:00
FILE “08 – Piercing.wav” WAVE
TRACK 08 AUDIO
TITLE “Piercing”
PERFORMER “Die Arzte”
INDEX 01 00:00:00
TRACK 09 AUDIO
TITLE “Besserwisserboy”
PERFORMER “Die Arzte”
INDEX 00 04:14:63
FILE “09 – Besserwisserboy.wav” WAVE
INDEX 01 00:00:00
TRACK 10 AUDIO
TITLE “Anti-Zombie”
PERFORMER “Die Arzte”
INDEX 00 03:38:22
FILE “10 – Anti-Zombie.wav” WAVE
INDEX 01 00:00:00
FILE “11 – Pro-Zombie.wav” WAVE
TRACK 11 AUDIO
TITLE “Pro-Zombie”
PERFORMER “Die Arzte”
INDEX 01 00:00:00
TRACK 12 AUDIO
TITLE “Wammw”
PERFORMER “Die Arzte”
INDEX 00 02:06:37
FILE “12 – Wammw.wav” WAVE
INDEX 01 00:00:00
TRACK 13 AUDIO
TITLE “Nichtwissen”
PERFORMER “Die Arzte”
INDEX 00 01:49:46
FILE “13 – Nichtwissen.wav” WAVE
INDEX 01 00:00:00

REM GENRE “Punk Rock”
REM DATE 2003
REM DISCID B40A610D
REM COMMENT “ExactAudioCopy v0.99pb5”
PERFORMER “Die Arzte”
TITLE “Gerausch”
FILE “00 – Hande innen (Hidden track).wav” WAVE
TRACK 01 AUDIO
TITLE “Als ich den Punk erfand …”
PERFORMER “Die Arzte”
INDEX 00 00:00:00
FILE “01 – Als ich den Punk erfand ….wav” WAVE
INDEX 01 00:00:00
FILE “02 – System.wav” WAVE
TRACK 02 AUDIO
TITLE “System”
PERFORMER “Die Arzte”
INDEX 01 00:00:00
FILE “03 – T-Error.wav” WAVE
TRACK 03 AUDIO
TITLE “T-Error”
PERFORMER “Die Arzte”
INDEX 01 00:00:00
FILE “04 – Nicht allein.wav” WAVE
TRACK 04 AUDIO
TITLE “Nicht allein”
PERFORMER “Die Arzte”
INDEX 01 00:00:00
FILE “05 – Dinge von denen.wav” WAVE
TRACK 05 AUDIO
TITLE “Dinge von denen”
PERFORMER “Die Arzte”
INDEX 01 00:00:00
FILE “06 – Der Grund.wav” WAVE
TRACK 06 AUDIO
TITLE “Der Grund”
PERFORMER “Die Arzte”
INDEX 01 00:00:00
FILE “07 – Geisterhaus.wav” WAVE
TRACK 07 AUDIO
TITLE “Geisterhaus”
PERFORMER “Die Arzte”
INDEX 01 00:00:00
FILE “08 – Ein Mann.wav” WAVE
TRACK 08 AUDIO
TITLE “Ein Mann”
PERFORMER “Die Arzte”
INDEX 01 00:00:00
FILE “09 – Anders als beim letzten Mal.wav” WAVE
TRACK 09 AUDIO
TITLE “Anders als beim letzten Mal”
PERFORMER “Die Arzte”
INDEX 01 00:00:00
FILE “10 – Ruhig angehn.wav” WAVE
TRACK 10 AUDIO
TITLE “Ruhig angehn”
PERFORMER “Die Arzte”
INDEX 01 00:00:00
FILE “11 – Jag alskar Sverige!.wav” WAVE
TRACK 11 AUDIO
TITLE “Jag alskar Sverige!”
PERFORMER “Die Arzte”
INDEX 01 00:00:00
FILE “12 – Richtig schon evil.wav” WAVE
TRACK 12 AUDIO
TITLE “Richtig schon evil”
PERFORMER “Die Arzte”
INDEX 01 00:00:00
FILE “13 – Schneller leben.wav” WAVE
TRACK 13 AUDIO
TITLE “Schneller leben”
PERFORMER “Die Arzte”
INDEX 01 00:00:00


Leave a Reply

Your email address will not be published. Required fields are marked *

This site uses Akismet to reduce spam. Learn how your comment data is processed.