Die Ärzte – Die Bestie in Menschengestalt




Artist: Die Ärzte
Year: 1993
Genre: Punk
Notes: Discogs
Add. Notes:
Cover incl.: Yes
Encoder: FLAC
Bitrate: ~1000 kBit/s (44.1 kHz/16 Bit/s)
Log & Cue incl.: Yes
Size: 462 MB
Password: “slam” (without ” “)


All Downloads/Hosters are compatible

Download 1
KatFile.com
Rapidgator.net
Turbobit.net
FileFactory.com
Download 2
KatFile.com
Rapidgator.net
Turbobit.net
FileFactory.com

Tracklist:

Inntro
Schrei nach Liebe
Schopenhauer
Für uns
Hey Huh (in Scheiben)
FaFaFa
Deutschrockgirl
Mach die Augen zu
Gehirn-Stürm
Mit dem Schwert nach Polen, warum 
René?
Claudia (Teil 95)
Die Allerschürfste
Friedenspanzer
Quark
Dos Corazones
Kopfüber in die Hölle
Omaboy
Lieber Tee
Wenn es Abend wird

EAC-Log, CUE-Sheed & NFO:

Click to open spoiler
Exact Audio Copy V0.99 prebeta 5 from 4. May 2009

EAC extraction logfile from 18. November 2009, 17:36

Die Ärzte / Die Bestie in Menschengestalt

Used drive : HL-DT-STDVDRAM GSA-H12L Adapter: 1 ID: 1

Read mode : Secure
Utilize accurate stream : Yes
Defeat audio cache : Yes
Make use of C2 pointers : No

Read offset correction : 667
Overread into Lead-In and Lead-Out : No
Fill up missing offset samples with silence : Yes
Delete leading and trailing silent blocks : No
Null samples used in CRC calculations : Yes
Used interface : Installed external ASPI interface
Gap handling : Appended to previous track

Used output format : User Defined Encoder
Selected bitrate : 768 kBit/s
Quality : High
Add ID3 tag : No
Command line compressor : C:\Program Files\Exact Audio Copy\FLAC\FLAC.EXE
Additional command line options : -V -8 -T “artist=%a” -T “title=%t” -T “album=%g” -T “date=%y” -T “tracknumber=%n” -T “genre=%m” %s

TOC of the extracted CD

Track | Start | Length | Start sector | End sector
———————————————————
1 | 0:00.32 | 0:05.65 | 32 | 471
2 | 0:06.22 | 4:12.45 | 472 | 19416
3 | 4:18.67 | 3:06.50 | 19417 | 33416
4 | 7:25.42 | 4:43.40 | 33417 | 54681
5 | 12:09.07 | 1:28.48 | 54682 | 61329
6 | 13:37.55 | 1:41.12 | 61330 | 68916
7 | 15:18.67 | 1:53.40 | 68917 | 77431
8 | 17:12.32 | 4:00.18 | 77432 | 95449
9 | 21:12.50 | 4:04.40 | 95450 | 113789
10 | 25:17.15 | 4:28.42 | 113790 | 133931
11 | 29:45.57 | 0:08.60 | 133932 | 134591
12 | 29:54.42 | 3:24.45 | 134592 | 149936
13 | 33:19.12 | 3:57.03 | 149937 | 167714
14 | 37:16.15 | 2:45.37 | 167715 | 180126
15 | 40:01.52 | 3:47.45 | 180127 | 197196
16 | 43:49.22 | 2:54.65 | 197197 | 210311
17 | 46:44.12 | 4:44.53 | 210312 | 231664
18 | 51:28.65 | 4:48.42 | 231665 | 253306
19 | 56:17.32 | 6:36.38 | 253307 | 283044

Track 1

Filename C:\EAC\Die Ärzte – 1993 – Die Bestie in Menschengestalt\01 – Inntro.wav

Pre-gap length 0:00:02.32

Peak level 28.4 %
Track quality 100.0 %
Test CRC 9470C80E
Copy CRC 9470C80E
Track not present in AccurateRip database
Copy OK

Track 2

Filename C:\EAC\Die Ärzte – 1993 – Die Bestie in Menschengestalt\02 – Schrei nach Liebe.wav

Peak level 100.0 %
Track quality 100.0 %
Test CRC D0749C93
Copy CRC D0749C93
Accurately ripped (confidence 2) [02092873]
Copy OK

Track 3

Filename C:\EAC\Die Ärzte – 1993 – Die Bestie in Menschengestalt\03 – Schopenhauer.wav

Peak level 100.0 %
Track quality 100.0 %
Test CRC EF65C5FA
Copy CRC EF65C5FA
Accurately ripped (confidence 2) [1D86A1E1]
Copy OK

Track 4

Filename C:\EAC\Die Ärzte – 1993 – Die Bestie in Menschengestalt\04 – Für uns.wav

Peak level 98.9 %
Track quality 100.0 %
Test CRC 072F4B8D
Copy CRC 072F4B8D
Accurately ripped (confidence 2) [60F07C96]
Copy OK

Track 5

Filename C:\EAC\Die Ärzte – 1993 – Die Bestie in Menschengestalt\05 – Hey Huh (in Scheiben).wav

Pre-gap length 0:00:00.50

Peak level 100.0 %
Track quality 99.8 %
Test CRC CBE7435C
Copy CRC CBE7435C
Accurately ripped (confidence 2) [FADD27BF]
Copy OK

Track 6

Filename C:\EAC\Die Ärzte – 1993 – Die Bestie in Menschengestalt\06 – Fafafa.wav

Peak level 100.0 %
Track quality 100.0 %
Test CRC 6C1F1C79
Copy CRC 6C1F1C79
Accurately ripped (confidence 2) [CDF89FA9]
Copy OK

Track 7

Filename C:\EAC\Die Ärzte – 1993 – Die Bestie in Menschengestalt\07 – Deutschrockgirl.wav

Peak level 99.3 %
Track quality 99.9 %
Test CRC 35C8F0F6
Copy CRC 35C8F0F6
Accurately ripped (confidence 2) [F21DE43E]
Copy OK

Track 8

Filename C:\EAC\Die Ärzte – 1993 – Die Bestie in Menschengestalt\08 – Mach die Augen zu.wav

Peak level 100.0 %
Track quality 100.0 %
Test CRC 5A84D654
Copy CRC 5A84D654
Accurately ripped (confidence 2) [8088CB4B]
Copy OK

Track 9

Filename C:\EAC\Die Ärzte – 1993 – Die Bestie in Menschengestalt\09 – Gehirn-Stürm.wav

Peak level 100.0 %
Track quality 100.0 %
Test CRC AC142794
Copy CRC AC142794
Accurately ripped (confidence 2) [6ED97CB4]
Copy OK

Track 10

Filename C:\EAC\Die Ärzte – 1993 – Die Bestie in Menschengestalt\10 – Mi dem Schwert nach Polen, warum, René .wav

Copy aborted

Track 11

Filename C:\EAC\Die Ärzte – 1993 – Die Bestie in Menschengestalt\11 – Claudia (Teil 95).wav

Pre-gap length 0:00:00.55

Copy aborted

Track 12

Copy aborted

Track 13

Copy aborted

Track 14

Pre-gap length 0:00:00.58

Copy aborted

Track 15

Pre-gap length 0:00:00.07

Copy aborted

Track 16

Pre-gap length 0:00:00.07

Copy aborted

Track 17

Pre-gap length 0:00:00.60

Copy aborted

Track 18

Copy aborted

Track 19

Pre-gap length 0:00:01.32

Copy aborted

8 track(s) accurately ripped
1 track(s) not present in the AccurateRip database
10 track(s) canceled

Some tracks could not be verified as accurate

There were errors

End of status report

————————————————————

Exact Audio Copy V0.99 prebeta 5 from 4. May 2009

EAC extraction logfile from 18. November 2009, 18:35

Die Ärzte / Die Bestie in Menschengestalt

Used drive : HL-DT-STDVDRAM GSA-H12L Adapter: 1 ID: 1

Read mode : Secure
Utilize accurate stream : Yes
Defeat audio cache : Yes
Make use of C2 pointers : No

Read offset correction : 667
Overread into Lead-In and Lead-Out : No
Fill up missing offset samples with silence : Yes
Delete leading and trailing silent blocks : No
Null samples used in CRC calculations : Yes
Used interface : Installed external ASPI interface
Gap handling : Appended to previous track

Used output format : User Defined Encoder
Selected bitrate : 768 kBit/s
Quality : High
Add ID3 tag : No
Command line compressor : C:\Program Files\Exact Audio Copy\FLAC\FLAC.EXE
Additional command line options : -V -8 -T “artist=%a” -T “title=%t” -T “album=%g” -T “date=%y” -T “tracknumber=%n” -T “genre=%m” %s

TOC of the extracted CD

Track | Start | Length | Start sector | End sector
———————————————————
1 | 0:00.32 | 0:05.65 | 32 | 471
2 | 0:06.22 | 4:12.45 | 472 | 19416
3 | 4:18.67 | 3:06.50 | 19417 | 33416
4 | 7:25.42 | 4:43.40 | 33417 | 54681
5 | 12:09.07 | 1:28.48 | 54682 | 61329
6 | 13:37.55 | 1:41.12 | 61330 | 68916
7 | 15:18.67 | 1:53.40 | 68917 | 77431
8 | 17:12.32 | 4:00.18 | 77432 | 95449
9 | 21:12.50 | 4:04.40 | 95450 | 113789
10 | 25:17.15 | 4:28.42 | 113790 | 133931
11 | 29:45.57 | 0:08.60 | 133932 | 134591
12 | 29:54.42 | 3:24.45 | 134592 | 149936
13 | 33:19.12 | 3:57.03 | 149937 | 167714
14 | 37:16.15 | 2:45.37 | 167715 | 180126
15 | 40:01.52 | 3:47.45 | 180127 | 197196
16 | 43:49.22 | 2:54.65 | 197197 | 210311
17 | 46:44.12 | 4:44.53 | 210312 | 231664
18 | 51:28.65 | 4:48.42 | 231665 | 253306
19 | 56:17.32 | 6:36.38 | 253307 | 283044

Track 1

Filename C:\EAC\Die Ärzte – 1993 – Die Bestie in Menschengestalt\01 – Inntro.wav

Pre-gap length 0:00:02.32

Peak level 28.4 %
Track quality 100.0 %
Test CRC 9470C80E
Copy CRC 9470C80E
Track not present in AccurateRip database
Copy OK

Track 2

Filename C:\EAC\Die Ärzte – 1993 – Die Bestie in Menschengestalt\02 – Schrei nach Liebe.wav

Peak level 100.0 %
Track quality 100.0 %
Test CRC D0749C93
Copy CRC D0749C93
Accurately ripped (confidence 2) [02092873]
Copy OK

Track 3

Filename C:\EAC\Die Ärzte – 1993 – Die Bestie in Menschengestalt\03 – Schopenhauer.wav

Peak level 100.0 %
Track quality 100.0 %
Test CRC EF65C5FA
Copy CRC EF65C5FA
Accurately ripped (confidence 2) [1D86A1E1]
Copy OK

Track 4

Filename C:\EAC\Die Ärzte – 1993 – Die Bestie in Menschengestalt\04 – Für uns.wav

Peak level 98.9 %
Track quality 100.0 %
Test CRC 072F4B8D
Copy CRC 072F4B8D
Accurately ripped (confidence 2) [60F07C96]
Copy OK

Track 5

Filename C:\EAC\Die Ärzte – 1993 – Die Bestie in Menschengestalt\05 – Hey Huh (in Scheiben).wav

Pre-gap length 0:00:00.50

Peak level 100.0 %
Track quality 99.8 %
Test CRC CBE7435C
Copy CRC CBE7435C
Accurately ripped (confidence 2) [FADD27BF]
Copy OK

Track 6

Filename C:\EAC\Die Ärzte – 1993 – Die Bestie in Menschengestalt\06 – Fafafa.wav

Peak level 100.0 %
Track quality 100.0 %
Test CRC 6C1F1C79
Copy CRC 6C1F1C79
Accurately ripped (confidence 2) [CDF89FA9]
Copy OK

Track 7

Filename C:\EAC\Die Ärzte – 1993 – Die Bestie in Menschengestalt\07 – Deutschrockgirl.wav

Peak level 99.3 %
Track quality 99.9 %
Test CRC 35C8F0F6
Copy CRC 35C8F0F6
Accurately ripped (confidence 2) [F21DE43E]
Copy OK

Track 8

Filename C:\EAC\Die Ärzte – 1993 – Die Bestie in Menschengestalt\08 – Mach die Augen zu.wav

Peak level 100.0 %
Track quality 100.0 %
Test CRC 5A84D654
Copy CRC 5A84D654
Accurately ripped (confidence 2) [8088CB4B]
Copy OK

Track 9

Filename C:\EAC\Die Ärzte – 1993 – Die Bestie in Menschengestalt\09 – Gehirn-Stürm.wav

Peak level 100.0 %
Track quality 100.0 %
Test CRC AC142794
Copy CRC AC142794
Accurately ripped (confidence 2) [6ED97CB4]
Copy OK

Track 10

Filename C:\EAC\Die Ärzte – 1993 – Die Bestie in Menschengestalt\10 – Mit dem Schwert nach Polen, warum, René .wav

Peak level 99.2 %
Track quality 100.0 %
Test CRC 75D07A67
Copy CRC 75D07A67
Accurately ripped (confidence 2) [4B082D90]
Copy OK

Track 11

Filename C:\EAC\Die Ärzte – 1993 – Die Bestie in Menschengestalt\11 – Claudia (Teil 95).wav

Pre-gap length 0:00:00.55

Peak level 98.4 %
Track quality 100.0 %
Test CRC A0520EEC
Copy CRC A0520EEC
Accurately ripped (confidence 2) [610E404F]
Copy OK

Track 12

Filename C:\EAC\Die Ärzte – 1993 – Die Bestie in Menschengestalt\12 – Die Allerschürfste.wav

Peak level 100.0 %
Track quality 100.0 %
Test CRC 0D2A2DD1
Copy CRC 0D2A2DD1
Accurately ripped (confidence 2) [B1DDCC62]
Copy OK

Track 13

Filename C:\EAC\Die Ärzte – 1993 – Die Bestie in Menschengestalt\13 – Friedenspanzer.wav

Peak level 100.0 %
Track quality 100.0 %
Test CRC 053F00DB
Copy CRC 053F00DB
Accurately ripped (confidence 2) [88D60DD4]
Copy OK

Track 14

Filename C:\EAC\Die Ärzte – 1993 – Die Bestie in Menschengestalt\14 – Quark.wav

Pre-gap length 0:00:00.58

Peak level 98.9 %
Track quality 100.0 %
Test CRC 337FF8FD
Copy CRC 337FF8FD
Accurately ripped (confidence 2) [D7B55A8F]
Copy OK

Track 15

Filename C:\EAC\Die Ärzte – 1993 – Die Bestie in Menschengestalt\15 – Dos Corazones.wav

Pre-gap length 0:00:00.07

Peak level 100.0 %
Track quality 100.0 %
Test CRC 50B14C27
Copy CRC 50B14C27
Accurately ripped (confidence 2) [43E3C1C5]
Copy OK

Track 16

Filename C:\EAC\Die Ärzte – 1993 – Die Bestie in Menschengestalt\16 – Kopfüber in die Hölle.wav

Pre-gap length 0:00:00.07

Peak level 100.0 %
Track quality 100.0 %
Test CRC 4414A436
Copy CRC 4414A436
Accurately ripped (confidence 2) [F3E07D56]
Copy OK

Track 17

Filename C:\EAC\Die Ärzte – 1993 – Die Bestie in Menschengestalt\17 – Omaboy.wav

Pre-gap length 0:00:00.60

Peak level 99.9 %
Track quality 100.0 %
Test CRC 7A78FEFC
Copy CRC 7A78FEFC
Accurately ripped (confidence 2) [A25D6C12]
Copy OK

Track 18

Filename C:\EAC\Die Ärzte – 1993 – Die Bestie in Menschengestalt\18 – Lieber Tee.wav

Peak level 100.0 %
Track quality 99.9 %
Test CRC FF8E6269
Copy CRC FF8E6269
Accurately ripped (confidence 2) [61FE4084]
Copy OK

Track 19

Filename C:\EAC\Die Ärzte – 1993 – Die Bestie in Menschengestalt\19 – Wenn es Abend wird.wav

Pre-gap length 0:00:01.32

Peak level 99.9 %
Track quality 99.9 %
Test CRC 87958A50
Copy CRC 87958A50
Accurately ripped (confidence 2) [B8601494]
Copy OK

18 track(s) accurately ripped
1 track(s) not present in the AccurateRip database

Some tracks could not be verified as accurate

No errors occurred

End of status report

—–

REM GENRE “Punk Rock”
REM DATE 1993
REM DISCID F60EBD13
REM COMMENT “ExactAudioCopy v0.99pb5”
PERFORMER “Die Arzte”
TITLE “Die Bestie in Menschengestalt”
FILE “01 – Inntro.wav” WAVE
TRACK 01 AUDIO
TITLE “Inntro”
PERFORMER “Die Arzte”
PREGAP 00:00:32
INDEX 01 00:00:00
FILE “02 – Schrei nach Liebe.wav” WAVE
TRACK 02 AUDIO
TITLE “Schrei nach Liebe”
PERFORMER “Die Arzte”
INDEX 01 00:00:00
FILE “03 – Schopenhauer.wav” WAVE
TRACK 03 AUDIO
TITLE “Schopenhauer”
PERFORMER “Die Arzte”
INDEX 01 00:00:00
FILE “04 – Fur uns.wav” WAVE
TRACK 04 AUDIO
TITLE “Fur uns”
PERFORMER “Die Arzte”
INDEX 01 00:00:00
TRACK 05 AUDIO
TITLE “Hey Huh (in Scheiben)”
PERFORMER “Die Arzte”
INDEX 00 04:42:65
FILE “05 – Hey Huh (in Scheiben).wav” WAVE
INDEX 01 00:00:00
FILE “06 – Fafafa.wav” WAVE
TRACK 06 AUDIO
TITLE “Fafafa”
PERFORMER “Die Arzte”
INDEX 01 00:00:00
FILE “07 – Deutschrockgirl.wav” WAVE
TRACK 07 AUDIO
TITLE “Deutschrockgirl”
PERFORMER “Die Arzte”
INDEX 01 00:00:00
FILE “08 – Mach die Augen zu.wav” WAVE
TRACK 08 AUDIO
TITLE “Mach die Augen zu”
PERFORMER “Die Arzte”
INDEX 01 00:00:00
FILE “09 – Gehirn-Sturm.wav” WAVE
TRACK 09 AUDIO
TITLE “Gehirn-Sturm”
PERFORMER “Die Arzte”
INDEX 01 00:00:00
FILE “10 – Mit dem Schwert nach Polen, warum, Rene.wav” WAVE
TRACK 10 AUDIO
TITLE “Mi dem Schwert nach Polen, warum, Rene?”
PERFORMER “Die Arzte”
INDEX 01 00:00:00
TRACK 11 AUDIO
TITLE “Claudia (Teil 95)”
PERFORMER “Die Arzte”
INDEX 00 04:27:62
FILE “11 – Claudia (Teil 95).wav” WAVE
INDEX 01 00:00:00
FILE “12 – Die Allerschurfste.wav” WAVE
TRACK 12 AUDIO
TITLE “Die Allerschurfste”
PERFORMER “Die Arzte”
INDEX 01 00:00:00
FILE “13 – Friedenspanzer.wav” WAVE
TRACK 13 AUDIO
TITLE “Friedenspanzer”
PERFORMER “Die Arzte”
INDEX 01 00:00:00
TRACK 14 AUDIO
TITLE “Quark”
PERFORMER “Die Arzte”
INDEX 00 03:56:20
FILE “14 – Quark.wav” WAVE
INDEX 01 00:00:00
TRACK 15 AUDIO
TITLE “Dos Corazones”
PERFORMER “Die Arzte”
INDEX 00 02:45:30
FILE “15 – Dos Corazones.wav” WAVE
INDEX 01 00:00:00
TRACK 16 AUDIO
TITLE “Kopfuber in die Holle”
PERFORMER “Die Arzte”
INDEX 00 03:47:38
FILE “16 – Kopfuber in die Holle.wav” WAVE
INDEX 01 00:00:00
TRACK 17 AUDIO
TITLE “Omaboy”
PERFORMER “Die Arzte”
INDEX 00 02:54:05
FILE “17 – Omaboy.wav” WAVE
INDEX 01 00:00:00
FILE “18 – Lieber Tee.wav” WAVE
TRACK 18 AUDIO
TITLE “Lieber Tee”
PERFORMER “Die Arzte”
INDEX 01 00:00:00
TRACK 19 AUDIO
TITLE “Wenn es Abend wird”
PERFORMER “Die Arzte”
INDEX 00 04:47:10
FILE “19 – Wenn es Abend wird.wav” WAVE
INDEX 01 00:00:00


Leave a Reply

Your email address will not be published. Required fields are marked *

This site uses Akismet to reduce spam. Learn how your comment data is processed.