Die Ärzte – Die Ärzte




Artist: Die Ärzte
Year: 1986/1994
Genre: Punk
Notes: Discogs
Add. Notes:
Cover incl.: Yes
Encoder: FLAC
Bitrate: ~900 kBit/s (44.1 kHz/16 Bit/s)
Log & Cue incl.: Yes
Size: 268 MB
Password: “slam” (without ” “)


All Downloads/Hosters are compatible

Download 1
KatFile.com
Rapidgator.net
Turbobit.net
FileFactory.com
Download 2
KatFile.com
Rapidgator.net
Turbobit.net
FileFactory.com

Tracklist:

1 - Wie Am Ersten Tag - 3:41
2 - Mysteryland - 4:02
3 - Sweet Sweet Gwendoline - 2:50
4 - Ist Das Alles? - 3:39
5 - Geschwisterliebe - 4:11
6 - Alleine In Der Nacht - 2:47
7 - Jenseits Von Eden - 4:00
8 - Wir Werden Schön - 4:01
9 - Für Immer - 3:46
10 - Ich Bin Reich - 4:22
11 - Zum Letzten Mal - 4:24

EAC-Log, CUE-Sheed & NFO:

Click to open spoiler
Exact Audio Copy V0.99 prebeta 4 from 23. January 2008

EAC extraction logfile from 1. October 2009, 1:57

Die Ärzte / Die Ärzte

Used drive : HL-DT-STDVD-RAM GSA-H55N Adapter: 2 ID: 0

Read mode : Secure
Utilize accurate stream : Yes
Defeat audio cache : Yes
Make use of C2 pointers : No

Read offset correction : 102
Overread into Lead-In and Lead-Out : No
Fill up missing offset samples with silence : Yes
Delete leading and trailing silent blocks : No
Null samples used in CRC calculations : Yes
Used interface : Native Win32 interface for Win NT & 2000
Gap handling : Appended to previous track

Used output format : User Defined Encoder
Selected bitrate : 128 kBit/s
Quality : High
Add ID3 tag : No
Command line compressor : C:\Programme\Exact Audio Copy\Flac\flac.exe
Additional command line options : -V -8 -T “artist=%a” -T “title=%t” -T “album=%g” -T “date=%y” -T “tracknumber=%n” -T “genre=%m” %s

TOC of the extracted CD

Track | Start | Length | Start sector | End sector
———————————————————
1 | 0:00.00 | 3:41.52 | 0 | 16626
2 | 3:41.52 | 4:02.05 | 16627 | 34781
3 | 7:43.57 | 2:50.30 | 34782 | 47561
4 | 10:34.12 | 3:39.63 | 47562 | 64049
5 | 14:14.00 | 4:11.22 | 64050 | 82896
6 | 18:25.22 | 2:47.50 | 82897 | 95471
7 | 21:12.72 | 4:00.65 | 95472 | 113536
8 | 25:13.62 | 4:01.70 | 113537 | 131681
9 | 29:15.57 | 3:46.45 | 131682 | 148676
10 | 33:02.27 | 4:22.25 | 148677 | 168351
11 | 37:24.52 | 4:24.13 | 168352 | 188164

Track 1

Filename C:\EACrips\flac\Die Ärzte – 1986 – Die Ärzte\01 – Wie am ersten Tag.wav

Pre-gap length 0:00:02.00

Peak level 95.2 %
Track quality 99.8 %
Test CRC 0148FF50
Copy CRC 0148FF50
Cannot be verified as accurate (confidence 19) [D738EF82], AccurateRip returned [31FA748B]
Copy OK

Track 2

Filename C:\EACrips\flac\Die Ärzte – 1986 – Die Ärzte\02 – Mysteryland.wav

Pre-gap length 0:00:00.93

Peak level 100.0 %
Track quality 99.9 %
Test CRC 456DD2F7
Copy CRC 456DD2F7
Cannot be verified as accurate (confidence 18) [64226B97], AccurateRip returned [37F071ED]
Copy OK

Track 3

Filename C:\EACrips\flac\Die Ärzte – 1986 – Die Ärzte\03 – Sweet Sweet Gwendoline.wav

Peak level 100.0 %
Track quality 100.0 %
Test CRC CF2C55CF
Copy CRC CF2C55CF
Cannot be verified as accurate (confidence 18) [DDB47E73], AccurateRip returned [BEC69124]
Copy OK

Track 4

Filename C:\EACrips\flac\Die Ärzte – 1986 – Die Ärzte\04 – Ist das alles .wav

Pre-gap length 0:00:01.36

Peak level 100.0 %
Track quality 99.9 %
Test CRC 1AECBFD5
Copy CRC 1AECBFD5
Cannot be verified as accurate (confidence 18) [DDE1A568], AccurateRip returned [5DB097D4]
Copy OK

Track 5

Filename C:\EACrips\flac\Die Ärzte – 1986 – Die Ärzte\05 – Geschwisterliebe.wav

Pre-gap length 0:00:02.20

Peak level 100.0 %
Track quality 100.0 %
Test CRC 129289FC
Copy CRC 129289FC
Cannot be verified as accurate (confidence 18) [98C0E65B], AccurateRip returned [7A3027F8]
Copy OK

Track 6

Filename C:\EACrips\flac\Die Ärzte – 1986 – Die Ärzte\06 – Alleine in der Nacht.wav

Peak level 94.5 %
Track quality 100.0 %
Test CRC 25E4846B
Copy CRC 25E4846B
Cannot be verified as accurate (confidence 19) [E71B8D7A], AccurateRip returned [20835CEF]
Copy OK

Track 7

Filename C:\EACrips\flac\Die Ärzte – 1986 – Die Ärzte\07 – Jenseits von Eden.wav

Pre-gap length 0:00:01.60

Peak level 93.3 %
Track quality 100.0 %
Test CRC 6B8B78BC
Copy CRC 6B8B78BC
Cannot be verified as accurate (confidence 18) [8F14ABBE], AccurateRip returned [9C6B4204]
Copy OK

Track 8

Filename C:\EACrips\flac\Die Ärzte – 1986 – Die Ärzte\08 – Wir werden schön.wav

Pre-gap length 0:00:01.49

Peak level 91.1 %
Track quality 100.0 %
Test CRC 4CA0C172
Copy CRC 4CA0C172
Cannot be verified as accurate (confidence 18) [41E411EC], AccurateRip returned [1B1BB7E0]
Copy OK

Track 9

Filename C:\EACrips\flac\Die Ärzte – 1986 – Die Ärzte\09 – Für immer.wav

Pre-gap length 0:00:00.96

Peak level 95.5 %
Track quality 100.0 %
Test CRC B3915237
Copy CRC B3915237
Cannot be verified as accurate (confidence 18) [5C1E0DFC], AccurateRip returned [CDF12D6C]
Copy OK

Track 10

Filename C:\EACrips\flac\Die Ärzte – 1986 – Die Ärzte\10 – Ich bin reich.wav

Pre-gap length 0:00:02.16

Peak level 95.5 %
Track quality 99.9 %
Test CRC 931E69BD
Copy CRC 931E69BD
Cannot be verified as accurate (confidence 18) [601B46DC], AccurateRip returned [8BBE1B6C]
Copy OK

Track 11

Filename C:\EACrips\flac\Die Ärzte – 1986 – Die Ärzte\11 – Zum letzten Mal.wav

Pre-gap length 0:00:01.73

Peak level 95.5 %
Track quality 100.0 %
Test CRC 207551CD
Copy CRC 207551CD
Cannot be verified as accurate (confidence 19) [7C49E9CA], AccurateRip returned [80264E96]
Copy OK

No tracks could be verified as accurate
You may have a different pressing from the one(s) in the database

No errors occurred

End of status report

[CUETools log; Date: 05.10.2010 16:12:00; Version: 2.0.9]
Pregap length 00:02:00.
CDDBId mismatch: 9509CC0B vs AB09CC0B
[CTDB TOCID: c2JrP9F9Bty3LRgzmM0sfnfgsB4-] disk not present in database.
[AccurateRip ID: 0010afe3-00913214-ab09cc0b] disk not present in database.

Track Peak [ CRC32 ] [W/O NULL] [ LOG ]
— 100,0 [68F7FB59] [122F3FC3]
01 95,2 [0148FF50] [81BEABC6] CRC32
02 100,0 [456DD2F7] [D0ADAFF2] CRC32
03 100,0 [CF2C55CF] [557C131A] CRC32
04 100,0 [1AECBFD5] [06EE8F0A] CRC32
05 100,0 [129289FC] [06D005AE] CRC32
06 94,5 [25E4846B] [DE7B81F8] CRC32
07 93,3 [6B8B78BC] [C6BD3F0D] CRC32
08 91,1 [4CA0C172] [6F199F21] CRC32
09 95,5 [B3915237] [C2D88714] CRC32
10 95,5 [931E69BD] [00A80201] CRC32
11 95,5 [207551CD] [26781CBC] CRC32


Leave a Reply

Your email address will not be published. Required fields are marked *

Enter the text from the image below
 

This site uses Akismet to reduce spam. Learn how your comment data is processed.