Die Ärzte – Die Ärzte Früher! – Der Ausverkauf Geht Weiter




No Cover available

Artist: Die Ärzte
Year: 1989
Genre: Punk
Notes: Discogs
Add. Notes:
Watch Songs on: YouTube
Cover incl.: Yes
Encoder: FLAC
Bitrate: ~900 kBit/s (44.1 kHz/16 Bit/s)
Log & Cue incl.: Yes
Size: 412,1 MB
Password: “slam” (without ” “)


All Downloads/Hosters are compatible

Download 1
KatFile.com
Turbobit.net
FileFactory.com
Rapidgator.net
Download 2
KatFile.com
Turbobit.net
FileFactory.com
Rapidgator.net

Tracklist:

Teenager Liebe (echt)
Anneliese Schmidt
Der lustige Astronaut
Die Einsamkeit des Würstchens
Ekelpack
Grace Kelly
Kopfhaut
Mein kleiner Liebling
Sommer, Palmen, Sonnenschein
Teddybär
Tittenmaus
Vollmilch
Wilde Mädchen
Zitroneneis
Zum Bäcker
Teenager Liebe (unecht)

EAC-Log, CUE-Sheed & NFO:

Click to open spoiler
Exact Audio Copy V0.99 prebeta 5 from 4. May 2009

EAC extraction logfile from 30. January 2010, 0:45

Die Ärzte / Die Ärzte früher! – Der Ausverkauf geht weiter!

Used drive : TSSTcorpDVD-ROM SH-D163A Adapter: 1 ID: 0

Read mode : Secure
Utilize accurate stream : Yes
Defeat audio cache : Yes
Make use of C2 pointers : No

Read offset correction : 6
Overread into Lead-In and Lead-Out : No
Fill up missing offset samples with silence : Yes
Delete leading and trailing silent blocks : No
Null samples used in CRC calculations : Yes
Used interface : Installed external ASPI interface
Gap handling : Appended to previous track

Used output format : User Defined Encoder
Selected bitrate : 192 kBit/s
Quality : High
Add ID3 tag : No
Command line compressor : D:\Programme\Exact Audio Copy\Flac\flac.exe
Additional command line options : -T “artist=%a” -T “title=%t” -T “album=%g” -T “date=%y” -T “tracknumber=%n” -8 -e -p %s

TOC of the extracted CD

Track | Start | Length | Start sector | End sector
———————————————————
1 | 0:00.33 | 2:59.07 | 33 | 13464
2 | 2:59.40 | 3:11.03 | 13465 | 27792
3 | 6:10.43 | 2:34.57 | 27793 | 39399
4 | 8:45.25 | 1:24.35 | 39400 | 45734
5 | 10:09.60 | 2:03.03 | 45735 | 54962
6 | 12:12.63 | 2:19.65 | 54963 | 65452
7 | 14:32.53 | 2:57.32 | 65453 | 78759
8 | 17:30.10 | 2:29.60 | 78760 | 89994
9 | 19:59.70 | 2:53.15 | 89995 | 102984
10 | 22:53.10 | 2:47.18 | 102985 | 115527
11 | 25:40.28 | 5:03.42 | 115528 | 138294
12 | 30:43.70 | 1:55.55 | 138295 | 146974
13 | 32:39.50 | 1:21.13 | 146975 | 153062
14 | 34:00.63 | 2:19.62 | 153063 | 163549
15 | 36:20.50 | 2:07.30 | 163550 | 173104
16 | 38:28.05 | 3:26.60 | 173105 | 188614

Track 1

Filename D:\Eigene Dateien\Musik\Die Ärzte früher! – Der Ausverkauf geht weiter!\01. Teenager Liebe (echt).wav

Pre-gap length 0:00:02.44

Peak level 84.8 %
Track quality 100.0 %
Test CRC CAF1A9B8
Copy CRC CAF1A9B8
Accurately ripped (confidence 6) [63287B3B]
Copy OK

Track 2

Filename D:\Eigene Dateien\Musik\Die Ärzte früher! – Der Ausverkauf geht weiter!\02. Anneliese Schmidt.wav

Pre-gap length 0:00:01.00

Peak level 89.9 %
Track quality 100.0 %
Test CRC 5105F918
Copy CRC 5105F918
Accurately ripped (confidence 6) [5CED2FF3]
Copy OK

Track 3

Filename D:\Eigene Dateien\Musik\Die Ärzte früher! – Der Ausverkauf geht weiter!\03. Der lustige Astronaut.wav

Pre-gap length 0:00:01.00

Peak level 100.0 %
Track quality 100.0 %
Test CRC 287AE1CD
Copy CRC 287AE1CD
Accurately ripped (confidence 6) [74860F04]
Copy OK

Track 4

Filename D:\Eigene Dateien\Musik\Die Ärzte früher! – Der Ausverkauf geht weiter!\04. Die Einsamkeit des Würstchens.wav

Pre-gap length 0:00:01.00

Peak level 96.0 %
Track quality 100.0 %
Test CRC E20A1E29
Copy CRC E20A1E29
Accurately ripped (confidence 6) [19A54C37]
Copy OK

Track 5

Filename D:\Eigene Dateien\Musik\Die Ärzte früher! – Der Ausverkauf geht weiter!\05. Ekelpack.wav

Peak level 95.1 %
Track quality 100.0 %
Test CRC F2D68529
Copy CRC F2D68529
Accurately ripped (confidence 6) [390ACBC0]
Copy OK

Track 6

Filename D:\Eigene Dateien\Musik\Die Ärzte früher! – Der Ausverkauf geht weiter!\06. Grace Kelly.wav

Pre-gap length 0:00:01.00

Peak level 100.0 %
Track quality 100.0 %
Test CRC 2AFC2F3A
Copy CRC 2AFC2F3A
Accurately ripped (confidence 6) [4984F633]
Copy OK

Track 7

Filename D:\Eigene Dateien\Musik\Die Ärzte früher! – Der Ausverkauf geht weiter!\07. Kopfhaut.wav

Pre-gap length 0:00:01.00

Peak level 99.9 %
Track quality 100.0 %
Test CRC AB02C5CA
Copy CRC AB02C5CA
Accurately ripped (confidence 6) [5EF6E0F0]
Copy OK

Track 8

Filename D:\Eigene Dateien\Musik\Die Ärzte früher! – Der Ausverkauf geht weiter!\08. Mein kleiner Liebling.wav

Pre-gap length 0:00:01.00

Peak level 95.6 %
Track quality 100.0 %
Test CRC CF0CAAA8
Copy CRC CF0CAAA8
Accurately ripped (confidence 6) [97648D9B]
Copy OK

Track 9

Filename D:\Eigene Dateien\Musik\Die Ärzte früher! – Der Ausverkauf geht weiter!\09. Sommer, Palmen, Sonnenschein.wav

Pre-gap length 0:00:01.00

Peak level 100.0 %
Track quality 100.0 %
Test CRC 19E3C8A9
Copy CRC 19E3C8A9
Accurately ripped (confidence 6) [469C87EA]
Copy OK

Track 10

Filename D:\Eigene Dateien\Musik\Die Ärzte früher! – Der Ausverkauf geht weiter!\10. Teddybär.wav

Pre-gap length 0:00:00.98

Peak level 98.4 %
Track quality 100.0 %
Test CRC 612969D0
Copy CRC 612969D0
Accurately ripped (confidence 6) [C5224878]
Copy OK

Track 11

Filename D:\Eigene Dateien\Musik\Die Ärzte früher! – Der Ausverkauf geht weiter!\11. Tittenmaus.wav

Pre-gap length 0:00:01.00

Peak level 99.0 %
Track quality 100.0 %
Test CRC 232B2F37
Copy CRC 232B2F37
Accurately ripped (confidence 6) [88A809B8]
Copy OK

Track 12

Filename D:\Eigene Dateien\Musik\Die Ärzte früher! – Der Ausverkauf geht weiter!\12. Vollmilch.wav

Peak level 93.1 %
Track quality 100.0 %
Test CRC EDCD218E
Copy CRC EDCD218E
Accurately ripped (confidence 6) [C67497AF]
Copy OK

Track 13

Filename D:\Eigene Dateien\Musik\Die Ärzte früher! – Der Ausverkauf geht weiter!\13. Wilde Mädchen.wav

Pre-gap length 0:00:01.00

Peak level 100.0 %
Track quality 100.0 %
Test CRC 3057B2D0
Copy CRC 3057B2D0
Accurately ripped (confidence 6) [DE741F09]
Copy OK

Track 14

Filename D:\Eigene Dateien\Musik\Die Ärzte früher! – Der Ausverkauf geht weiter!\14. Zitroneneis.wav

Pre-gap length 0:00:01.00

Peak level 93.8 %
Track quality 99.9 %
Test CRC 0470684C
Copy CRC 0470684C
Accurately ripped (confidence 6) [1877133C]
Copy OK

Track 15

Filename D:\Eigene Dateien\Musik\Die Ärzte früher! – Der Ausverkauf geht weiter!\15. Zum Bäcker.wav

Pre-gap length 0:00:01.00

Peak level 100.0 %
Track quality 100.0 %
Test CRC 128DB99D
Copy CRC 128DB99D
Accurately ripped (confidence 6) [3999AA92]
Copy OK

Track 16

Filename D:\Eigene Dateien\Musik\Die Ärzte früher! – Der Ausverkauf geht weiter!\16. Teenager Liebe (unecht).wav

Pre-gap length 0:00:01.00

Peak level 96.2 %
Track quality 100.0 %
Test CRC DAD0BF1A
Copy CRC DAD0BF1A
Accurately ripped (confidence 6) [4A9D53BB]
Copy OK

All tracks accurately ripped

No errors occurred

End of status report

REM DATE 1989
REM DISCID B509D210
REM CATALOG Vielklang 523 661-2
CATALOG 0731452366122
PERFORMER “Die Ärzte”
TITLE “Die Ärzte früher! – Der Ausverkauf geht weiter!”
FILE “01. Teenager Liebe (echt).flac” WAVE
TRACK 01 AUDIO
TITLE “Teenager Liebe (echt)”
PERFORMER “Die Ärzte”
ISRC DEF088902320
PREGAP 00:00:33
INDEX 01 00:00:00
TRACK 02 AUDIO
TITLE “Anneliese Schmidt”
PERFORMER “Die Ärzte”
ISRC DEF088902330
INDEX 00 02:58:07
FILE “02. Anneliese Schmidt.flac” WAVE
INDEX 01 00:00:00
TRACK 03 AUDIO
TITLE “Der lustige Astronaut”
PERFORMER “Die Ärzte”
ISRC DEF088902340
INDEX 00 03:10:03
FILE “03. Der lustige Astronaut.flac” WAVE
INDEX 01 00:00:00
TRACK 04 AUDIO
TITLE “Die Einsamkeit des Würstchens”
PERFORMER “Die Ärzte”
ISRC DEF088902350
INDEX 00 02:33:57
FILE “04. Die Einsamkeit des Wurstchens.flac” WAVE
INDEX 01 00:00:00
FILE “05. Ekelpack.flac” WAVE
TRACK 05 AUDIO
TITLE “Ekelpack”
PERFORMER “Die Ärzte”
ISRC DEF088902360
INDEX 01 00:00:00
TRACK 06 AUDIO
TITLE “Grace Kelly”
PERFORMER “Die Ärzte”
ISRC DEF088902370
INDEX 00 02:02:03
FILE “06. Grace Kelly.flac” WAVE
INDEX 01 00:00:00
TRACK 07 AUDIO
TITLE “Kopfhaut”
PERFORMER “Die Ärzte”
ISRC DEF088902380
INDEX 00 02:18:65
FILE “07. Kopfhaut.flac” WAVE
INDEX 01 00:00:00
TRACK 08 AUDIO
TITLE “Mein kleiner Liebling”
PERFORMER “Die Ärzte”
ISRC DEF088902390
INDEX 00 02:56:32
FILE “08. Mein kleiner Liebling.flac” WAVE
INDEX 01 00:00:00
TRACK 09 AUDIO
TITLE “Sommer, Palmen, Sonnenschein”
PERFORMER “Die Ärzte”
ISRC DEF088902400
INDEX 00 02:28:60
FILE “09. Sommer, Palmen, Sonnenschein.flac” WAVE
INDEX 01 00:00:00
TRACK 10 AUDIO
TITLE “Teddybär”
PERFORMER “Die Ärzte”
ISRC DEF088902410
INDEX 00 02:52:16
FILE “10. Teddybar.flac” WAVE
INDEX 01 00:00:00
TRACK 11 AUDIO
TITLE “Tittenmaus”
PERFORMER “Die Ärzte”
ISRC DEF088902420
INDEX 00 02:46:18
FILE “11. Tittenmaus.flac” WAVE
INDEX 01 00:00:00
FILE “12. Vollmilch.flac” WAVE
TRACK 12 AUDIO
TITLE “Vollmilch”
PERFORMER “Die Ärzte”
ISRC DEF088902430
INDEX 01 00:00:00
TRACK 13 AUDIO
TITLE “Wilde Mädchen”
PERFORMER “Die Ärzte”
ISRC DEF088902440
INDEX 00 01:54:55
FILE “13. Wilde Madchen.flac” WAVE
INDEX 01 00:00:00
TRACK 14 AUDIO
TITLE “Zitroneneis”
PERFORMER “Die Ärzte”
ISRC DEF088902450
INDEX 00 01:20:13
FILE “14. Zitroneneis.flac” WAVE
INDEX 01 00:00:00
TRACK 15 AUDIO
TITLE “Zum Bäcker”
PERFORMER “Die Ärzte”
ISRC DEF088902460
INDEX 00 02:18:62
FILE “15. Zum Backer.flac” WAVE
INDEX 01 00:00:00
TRACK 16 AUDIO
TITLE “Teenager Liebe (unecht)”
PERFORMER “Die Ärzte”
ISRC DEF088902470
INDEX 00 02:06:30
FILE “16. Teenager Liebe (unecht).flac” WAVE
INDEX 01 00:00:00


Leave a Reply

Your email address will not be published. Required fields are marked *

This site uses Akismet to reduce spam. Learn how your comment data is processed.