Die Ärzte – Devil




Artist: Die Ärzte
Year: 2005
Genre: Punk
Notes: Discogs
Add. Notes:
Cover incl.: Yes
Encoder: FLAC
Bitrate: ~900 kBit/s (44.1 kHz/16 Bit/s)
Log & Cue incl.: Yes
Size: 318,23 MB
Password: “slam” (without ” “)


All Downloads/Hosters are compatible

Download 1
Turbobit.net
Rapidgator.net
UploadEver.com
KatFile.com
UsersDrive.com
Download 2
Turbobit.net
Rapidgator.net
UploadEver.com
KatFile.com
UsersDrive.com
Download 3
Turbobit.net
Rapidgator.net
UploadEver.com
KatFile.com
UsersDrive.com

Tracklist:

„Heiße Musik Für Wilde Teenagerparties - Vol. I“
I - Reguläres Album „Debil“
1 - Ärzte-Theme (Instrumental) - 2:00
2 - Scheißtyp - 2:58
3 - Paul - 2:26
4 - Kamelralley - 4:00
5 - Frank'n'stein - 2:38
6 - El Cattivo - 3:17
7 - Claudia Hat 'nen Schäferhund - 1:58
8 - Mädchen - 2:55
9 - Mr. Sexpistols - 3:14
10 - Micha - 2:52
11 - Zu Spät - 2:43
12 - Roter Minirock - 2:15
13 - Schlaflied - 4:13
II - Bonustracks
14 - Teenager Liebe - 2:54
15 - Grace Kelly - 2:18
16 - Ärzte-Theme - 1:55
17 - Claudia Hat 'nen Schäferhund (Version Vom Unikum-
Tapesampler) - 1:51
18a - Füße Vom Tisch - 7:29
18b - (silence) - 4:59
18c - Sahnie's Collective Wisdom - 0:06

EAC-Log, CUE-Sheed & NFO:

Click to open spoiler
Exact Audio Copy V0.99 prebeta 5 from 4. May 2009

EAC extraction logfile from 19. September 2010, 15:03

Die Arzte / Devil

Used drive : HL-DT-STDVDRAM GSA-4040B Adapter: 0 ID: 1

Read mode : Secure
Utilize accurate stream : Yes
Defeat audio cache : Yes
Make use of C2 pointers : No

Read offset correction : 667
Overread into Lead-In and Lead-Out : No
Fill up missing offset samples with silence : Yes
Delete leading and trailing silent blocks : No
Null samples used in CRC calculations : Yes
Used interface : Native Win32 interface for Win NT & 2000
Gap handling : Appended to previous track

Used output format : User Defined Encoder
Selected bitrate : 1024 kBit/s
Quality : High
Add ID3 tag : No
Command line compressor : C:\Program Files\FLAC\flac.exe
Additional command line options : -8 -V -T “ARTIST=%a” -T “TITLE=%t” -T “ALBUM=%g” -T “DATE=%y” -T “TRACKNUMBER=%n” -T “GENRE=%m” -T “COMMENT=EAC FLAC -8” %s

TOC of the extracted CD

Track | Start | Length | Start sector | End sector
———————————————————
1 | 0:00.00 | 2:01.65 | 0 | 9139
2 | 2:01.65 | 2:58.17 | 9140 | 22506
3 | 5:00.07 | 2:28.71 | 22507 | 33677
4 | 7:29.03 | 4:02.10 | 33678 | 51837
5 | 11:31.13 | 2:41.46 | 51838 | 63958
6 | 14:12.59 | 3:16.71 | 63959 | 78729
7 | 17:29.55 | 2:01.71 | 78730 | 87875
8 | 19:31.51 | 2:58.47 | 87876 | 101272
9 | 22:30.23 | 3:16.46 | 101273 | 116018
10 | 25:46.69 | 2:56.21 | 116019 | 129239
11 | 28:43.15 | 2:45.21 | 129240 | 141635
12 | 31:28.36 | 2:18.09 | 141636 | 151994
13 | 33:46.45 | 4:12.18 | 151995 | 170912
14 | 37:58.63 | 2:57.00 | 170913 | 184187
15 | 40:55.63 | 2:21.08 | 184188 | 194770
16 | 43:16.71 | 1:57.67 | 194771 | 203612
17 | 45:14.63 | 1:51.72 | 203613 | 212009
18 | 47:06.60 | 7:27.31 | 212010 | 245565

Track 1

Filename K:\My torrents\Die Aerzte – 2005 – Devil\01. Die Arzte – Arzte-Theme.wav

Pre-gap length 0:00:02.00

Peak level 99.0 %
Track quality 99.9 %
Test CRC F2FC1BEC
Copy CRC F2FC1BEC
Accurately ripped (confidence 3) [07638D04]
Copy OK

Track 2

Filename K:\My torrents\Die Aerzte – 2005 – Devil\02. Die Arzte – Scheisstyp.wav

Peak level 99.0 %
Track quality 100.0 %
Test CRC 72870075
Copy CRC 72870075
Accurately ripped (confidence 2) [27A1EA38]
Copy OK

Track 3

Filename K:\My torrents\Die Aerzte – 2005 – Devil\03. Die Arzte – Paul.wav

Pre-gap length 0:00:02.65

Peak level 99.0 %
Track quality 100.0 %
Test CRC FB8808E0
Copy CRC FB8808E0
Accurately ripped (confidence 3) [4F979F45]
Copy OK

Track 4

Filename K:\My torrents\Die Aerzte – 2005 – Devil\04. Die Arzte – Kamelralley.wav

Pre-gap length 0:00:02.69

Peak level 99.0 %
Track quality 99.9 %
Test CRC 80329392
Copy CRC 80329392
Accurately ripped (confidence 2) [199F70D3]
Copy OK

Track 5

Filename K:\My torrents\Die Aerzte – 2005 – Devil\05. Die Arzte – Frank’n’stein.wav

Pre-gap length 0:00:03.00

Peak level 99.0 %
Track quality 100.0 %
Test CRC 9DFD10A3
Copy CRC 9DFD10A3
Accurately ripped (confidence 2) [311529AD]
Copy OK

Track 6

Filename K:\My torrents\Die Aerzte – 2005 – Devil\06. Die Arzte – El Cattivo.wav

Pre-gap length 0:00:02.68

Peak level 99.0 %
Track quality 100.0 %
Test CRC 358A65CA
Copy CRC 358A65CA
Accurately ripped (confidence 2) [34CE733A]
Copy OK

Track 7

Filename K:\My torrents\Die Aerzte – 2005 – Devil\07. Die Arzte – Claudia hat’nen Schaeferhund.wav

Pre-gap length 0:00:02.74

Peak level 99.0 %
Track quality 100.0 %
Test CRC 3FEDB446
Copy CRC 3FEDB446
Accurately ripped (confidence 2) [1BD7E297]
Copy OK

Track 8

Filename K:\My torrents\Die Aerzte – 2005 – Devil\08. Die Arzte – Madchen.wav

Pre-gap length 0:00:02.68

Peak level 99.0 %
Track quality 99.9 %
Test CRC 6D0E8D0B
Copy CRC 6D0E8D0B
Accurately ripped (confidence 2) [596742F6]
Copy OK

Track 9

Filename K:\My torrents\Die Aerzte – 2005 – Devil\09. Die Arzte – Mr.Sexpistols.wav

Pre-gap length 0:00:03.00

Peak level 99.0 %
Track quality 100.0 %
Test CRC FA2FE244
Copy CRC FA2FE244
Accurately ripped (confidence 2) [D1691F67]
Copy OK

Track 10

Filename K:\My torrents\Die Aerzte – 2005 – Devil\10. Die Arzte – Micha.wav

Pre-gap length 0:00:03.00

Peak level 99.0 %
Track quality 100.0 %
Test CRC F571F259
Copy CRC F571F259
Accurately ripped (confidence 2) [0875DB00]
Copy OK

Track 11

Filename K:\My torrents\Die Aerzte – 2005 – Devil\11. Die Arzte – Zu spat.wav

Pre-gap length 0:00:02.82

Peak level 99.0 %
Track quality 100.0 %
Test CRC 8A6AE822
Copy CRC 8A6AE822
Accurately ripped (confidence 2) [E1CEE76D]
Copy OK

Track 12

Filename K:\My torrents\Die Aerzte – 2005 – Devil\12. Die Arzte – Roter Minirock.wav

Pre-gap length 0:00:02.70

Peak level 99.0 %
Track quality 99.9 %
Test CRC 5D7F3839
Copy CRC 5D7F3839
Accurately ripped (confidence 2) [C582A203]
Copy OK

Track 13

Filename K:\My torrents\Die Aerzte – 2005 – Devil\13. Die Arzte – Schlaflied.wav

Pre-gap length 0:00:03.00

Peak level 99.0 %
Track quality 100.0 %
Test CRC BB36E33D
Copy CRC BB36E33D
Accurately ripped (confidence 2) [4D045C30]
Copy OK

Track 14

Filename K:\My torrents\Die Aerzte – 2005 – Devil\14. Die Arzte – Teenanger Liebe.wav

Pre-gap length 0:00:02.00

Peak level 99.0 %
Track quality 99.9 %
Test CRC B2DE84AC
Copy CRC B2DE84AC
Accurately ripped (confidence 2) [2B00F387]
Copy OK

Track 15

Filename K:\My torrents\Die Aerzte – 2005 – Devil\15. Die Arzte – Grace Kelly.wav

Pre-gap length 0:00:01.92

Peak level 99.0 %
Track quality 99.9 %
Test CRC 3ED9ABBA
Copy CRC 3ED9ABBA
Accurately ripped (confidence 2) [2DFF53F1]
Copy OK

Track 16

Filename K:\My torrents\Die Aerzte – 2005 – Devil\16. Die Arzte – Arzte-Theme (Soundtrack).wav

Pre-gap length 0:00:02.78

Peak level 99.0 %
Track quality 99.9 %
Test CRC 97CDDD62
Copy CRC 97CDDD62
Accurately ripped (confidence 2) [F230730C]
Copy OK

Track 17

Filename K:\My torrents\Die Aerzte – 2005 – Devil\17. Die Arzte – Claudia hat’nen Schaferhund (Version von Unikum-Tapesampler).wav

Pre-gap length 0:00:02.93

Peak level 60.1 %
Track quality 100.0 %
Test CRC DB1EBE70
Copy CRC DB1EBE70
Accurately ripped (confidence 2) [0420F302]
Copy OK

Track 18

Filename K:\My torrents\Die Aerzte – 2005 – Devil\18. Die Arzte – Fusse vom Tisch.wav

Pre-gap length 0:00:02.28

Peak level 75.0 %
Track quality 100.0 %
Test CRC FC614A0F
Copy CRC FC614A0F
Accurately ripped (confidence 2) [2F1CAC02]
Copy OK

All tracks accurately ripped

No errors occurred

End of status report

REM GENRE “Punk Rock”
REM DATE 2005
REM DISCID F10CCA12
REM COMMENT “ExactAudioCopy v0.99pb5”
PERFORMER “Die Arzte”
TITLE “Devil”
FILE “01. Die Arzte – Arzte-Theme.wav” WAVE
TRACK 01 AUDIO
TITLE “Arzte-Theme”
PERFORMER “Die Arzte”
INDEX 01 00:00:00
FILE “02. Die Arzte – Scheisstyp.wav” WAVE
TRACK 02 AUDIO
TITLE “Scheisstyp”
PERFORMER “Die Arzte”
INDEX 01 00:00:00
TRACK 03 AUDIO
TITLE “Paul”
PERFORMER “Die Arzte”
INDEX 00 02:55:43
FILE “03. Die Arzte – Paul.wav” WAVE
INDEX 01 00:00:00
TRACK 04 AUDIO
TITLE “Kamelralley”
PERFORMER “Die Arzte”
INDEX 00 02:26:19
FILE “04. Die Arzte – Kamelralley.wav” WAVE
INDEX 01 00:00:00
TRACK 05 AUDIO
TITLE “Frank’n’stein”
PERFORMER “Die Arzte”
INDEX 00 03:59:10
FILE “05. Die Arzte – Frank’n’stein.wav” WAVE
INDEX 01 00:00:00
TRACK 06 AUDIO
TITLE “El Cattivo”
PERFORMER “Die Arzte”
INDEX 00 02:38:70
FILE “06. Die Arzte – El Cattivo.wav” WAVE
INDEX 01 00:00:00
TRACK 07 AUDIO
TITLE “Claudia hat’nen Schaeferhund”
PERFORMER “Die Arzte”
INDEX 00 03:14:15
FILE “07. Die Arzte – Claudia hat’nen Schaeferhund.wav” WAVE
INDEX 01 00:00:00
TRACK 08 AUDIO
TITLE “Madchen”
PERFORMER “Die Arzte”
INDEX 00 01:59:20
FILE “08. Die Arzte – Madchen.wav” WAVE
INDEX 01 00:00:00
TRACK 09 AUDIO
TITLE “Mr.Sexpistols”
PERFORMER “Die Arzte”
INDEX 00 02:55:47
FILE “09. Die Arzte – Mr.Sexpistols.wav” WAVE
INDEX 01 00:00:00
TRACK 10 AUDIO
TITLE “Micha”
PERFORMER “Die Arzte”
INDEX 00 03:13:46
FILE “10. Die Arzte – Micha.wav” WAVE
INDEX 01 00:00:00
TRACK 11 AUDIO
TITLE “Zu spat”
PERFORMER “Die Arzte”
INDEX 00 02:53:34
FILE “11. Die Arzte – Zu spat.wav” WAVE
INDEX 01 00:00:00
TRACK 12 AUDIO
TITLE “Roter Minirock”
PERFORMER “Die Arzte”
INDEX 00 02:42:43
FILE “12. Die Arzte – Roter Minirock.wav” WAVE
INDEX 01 00:00:00
TRACK 13 AUDIO
TITLE “Schlaflied”
PERFORMER “Die Arzte”
INDEX 00 02:15:09
FILE “13. Die Arzte – Schlaflied.wav” WAVE
INDEX 01 00:00:00
TRACK 14 AUDIO
TITLE “Teenanger Liebe”
PERFORMER “Die Arzte”
INDEX 00 04:10:18
FILE “14. Die Arzte – Teenanger Liebe.wav” WAVE
INDEX 01 00:00:00
TRACK 15 AUDIO
TITLE “Grace Kelly”
PERFORMER “Die Arzte”
INDEX 00 02:55:06
FILE “15. Die Arzte – Grace Kelly.wav” WAVE
INDEX 01 00:00:00
TRACK 16 AUDIO
TITLE “Arzte-Theme (Soundtrack)”
PERFORMER “Die Arzte”
INDEX 00 02:18:24
FILE “16. Die Arzte – Arzte-Theme (Soundtrack).wav” WAVE
INDEX 01 00:00:00
TRACK 17 AUDIO
TITLE “Claudia hat’nen Schaferhund (Version von Unikum-Tapesampler)”
PERFORMER “Die Arzte”
INDEX 00 01:54:72
FILE “17. Die Arzte – Claudia hat’nen Schaferhund (Version von Unikum-Tapesampler).wav” WAVE
INDEX 01 00:00:00
TRACK 18 AUDIO
TITLE “Fusse vom Tisch”
PERFORMER “Die Arzte”
INDEX 00 01:49:51
FILE “18. Die Arzte – Fusse vom Tisch.wav” WAVE
INDEX 01 00:00:00

Leave a Reply

Your email address will not be published. Required fields are marked *

This site uses Akismet to reduce spam. Learn how your comment data is processed.