Die Ärzte – Debil




Artist: Die Ärzte
Year: 1984/1994
Genre: Punk
Notes: Discogs
Add. Notes: Reissue
Cover incl.: Yes
Encoder: FLAC
Bitrate: ~800 kBit/s (44.1 kHz/16 Bit/s)
Log & Cue incl.: Yes
Size: 243 MB
Password: “slam” (without ” “)


All Downloads/Hosters are compatible

Download 1
KatFile.com
Rapidgator.net
Turbobit.net
FileFactory.com
Download 2
KatFile.com
Rapidgator.net
Turbobit.net
FileFactory.com

Tracklist:

 Jungsseite
1 Ärzte Theme (Instrumental) 2:00
2 Scheißtyp 2:58
3 Paul 2:26
4 Kamelralley 4:00
5 Frank'n'stein 2:38
6 El Cattivo 3:12
7 Claudia Hat 'Nen Schäferhund 1:58
Mädchenseite
8 Mädchen 2:55
9 Mr. Sexpistols 3:14
10 Micha 2:52
11 Zu Spät 2:43
12 Roter Minirock 2:15
13 Schlaflied 4:13

EAC-Log, CUE-Sheed & NFO:

Click to open spoiler
Exact Audio Copy V0.99 prebeta 5 from 4. May 2009

EAC extraction logfile from 4. October 2010, 20:14

Die Arzte / Debil

Used drive : HL-DT-STDVDRAM GSA-4040B Adapter: 0 ID: 1

Read mode : Secure
Utilize accurate stream : Yes
Defeat audio cache : Yes
Make use of C2 pointers : No

Read offset correction : 667
Overread into Lead-In and Lead-Out : No
Fill up missing offset samples with silence : Yes
Delete leading and trailing silent blocks : No
Null samples used in CRC calculations : Yes
Used interface : Native Win32 interface for Win NT & 2000
Gap handling : Appended to previous track

Used output format : User Defined Encoder
Selected bitrate : 1024 kBit/s
Quality : High
Add ID3 tag : No
Command line compressor : C:\Program Files\FLAC\flac.exe
Additional command line options : -8 -V -T “ARTIST=%a” -T “TITLE=%t” -T “ALBUM=%g” -T “DATE=%y” -T “TRACKNUMBER=%n” -T “GENRE=%m” -T “COMMENT=EAC FLAC -8” %s

TOC of the extracted CD

Track | Start | Length | Start sector | End sector
———————————————————
1 | 0:00.00 | 2:00.70 | 0 | 9069
2 | 2:00.70 | 2:58.42 | 9070 | 22461
3 | 4:59.37 | 2:29.00 | 22462 | 33636
4 | 7:28.37 | 4:01.13 | 33637 | 51724
5 | 11:29.50 | 2:41.50 | 51725 | 63849
6 | 14:11.25 | 3:17.00 | 63850 | 78624
7 | 17:28.25 | 2:02.00 | 78625 | 87774
8 | 19:30.25 | 2:57.50 | 87775 | 101099
9 | 22:28.00 | 3:16.50 | 101100 | 115849
10 | 25:44.50 | 2:56.25 | 115850 | 129074
11 | 28:41.00 | 2:45.25 | 129075 | 141474
12 | 31:26.25 | 2:17.12 | 141475 | 151761
13 | 33:43.37 | 4:10.18 | 151762 | 170529

Track 1

Filename D:\Lossless_Music\Die Arzte\01 – Studioalben\1984 – Debil\01. Die Arzte – Arzte Theme (Instrumental).wav

Pre-gap length 0:00:02.00

Peak level 100.0 %
Track quality 99.8 %
Test CRC EB4456DA
Copy CRC EB4456DA
Accurately ripped (confidence 14) [80736D37]
Copy OK

Track 2

Filename D:\Lossless_Music\Die Arzte\01 – Studioalben\1984 – Debil\02. Die Arzte – Scheisstyp.wav

Peak level 98.5 %
Track quality 100.0 %
Test CRC 490574FB
Copy CRC 490574FB
Accurately ripped (confidence 14) [347AF66C]
Copy OK

Track 3

Filename D:\Lossless_Music\Die Arzte\01 – Studioalben\1984 – Debil\03. Die Arzte – Paul.wav

Peak level 96.8 %
Track quality 100.0 %
Test CRC 5124A464
Copy CRC 5124A464
Accurately ripped (confidence 14) [2D3460CA]
Copy OK

Track 4

Filename D:\Lossless_Music\Die Arzte\01 – Studioalben\1984 – Debil\04. Die Arzte – Kamelralley.wav

Peak level 96.0 %
Track quality 100.0 %
Test CRC EA58F55E
Copy CRC EA58F55E
Accurately ripped (confidence 14) [242FE0C6]
Copy OK

Track 5

Filename D:\Lossless_Music\Die Arzte\01 – Studioalben\1984 – Debil\05. Die Arzte – Frank’n’Stein.wav

Peak level 94.2 %
Track quality 100.0 %
Test CRC F25AB446
Copy CRC F25AB446
Accurately ripped (confidence 14) [2850CCC4]
Copy OK

Track 6

Filename D:\Lossless_Music\Die Arzte\01 – Studioalben\1984 – Debil\06. Die Arzte – El Cattivo.wav

Peak level 93.4 %
Track quality 100.0 %
Test CRC 0F372A8A
Copy CRC 0F372A8A
Accurately ripped (confidence 14) [FC3A6F17]
Copy OK

Track 7

Filename D:\Lossless_Music\Die Arzte\01 – Studioalben\1984 – Debil\07. Die Arzte – Claudia hat ‘nen Schaferhund.wav

Peak level 100.0 %
Track quality 100.0 %
Test CRC 2246CEE8
Copy CRC 2246CEE8
Accurately ripped (confidence 14) [3787ACD4]
Copy OK

Track 8

Filename D:\Lossless_Music\Die Arzte\01 – Studioalben\1984 – Debil\08. Die Arzte – Madchen.wav

Peak level 100.0 %
Track quality 99.9 %
Test CRC 34908B71
Copy CRC 34908B71
Accurately ripped (confidence 14) [B0E87EF8]
Copy OK

Track 9

Filename D:\Lossless_Music\Die Arzte\01 – Studioalben\1984 – Debil\09. Die Arzte – Mr. Sexpistols.wav

Peak level 93.3 %
Track quality 100.0 %
Test CRC 1311B941
Copy CRC 1311B941
Accurately ripped (confidence 14) [E3C1C3E4]
Copy OK

Track 10

Filename D:\Lossless_Music\Die Arzte\01 – Studioalben\1984 – Debil\10. Die Arzte – Micha.wav

Peak level 100.0 %
Track quality 99.9 %
Test CRC F5925586
Copy CRC F5925586
Accurately ripped (confidence 14) [6B83C189]
Copy OK

Track 11

Filename D:\Lossless_Music\Die Arzte\01 – Studioalben\1984 – Debil\11. Die Arzte – Zu Spat.wav

Peak level 96.2 %
Track quality 100.0 %
Test CRC 7EEE59A0
Copy CRC 7EEE59A0
Accurately ripped (confidence 14) [A75204AE]
Copy OK

Track 12

Filename D:\Lossless_Music\Die Arzte\01 – Studioalben\1984 – Debil\12. Die Arzte – Roter Minirock.wav

Pre-gap length 0:00:01.42

Peak level 98.2 %
Track quality 99.9 %
Test CRC 55C5F198
Copy CRC 55C5F198
Accurately ripped (confidence 14) [F7B9D34F]
Copy OK

Track 13

Filename D:\Lossless_Music\Die Arzte\01 – Studioalben\1984 – Debil\13. Die Arzte – Schlaflied.wav

Peak level 98.4 %
Track quality 100.0 %
Test CRC E9B403D8
Copy CRC E9B403D8
Accurately ripped (confidence 14) [91E6F9BD]
Copy OK

All tracks accurately ripped

No errors occurred

End of status report

——————————————————–

REM GENRE “Punk Rock”
REM DATE 1984
REM DISCID 8D08E10D
REM COMMENT “ExactAudioCopy v0.99pb5”
PERFORMER “Die Arzte”
TITLE “Debil”
FILE “01. Die Arzte – Arzte Theme (Instrumental).wav” WAVE
TRACK 01 AUDIO
TITLE “Arzte Theme (Instrumental)”
PERFORMER “Die Arzte”
INDEX 01 00:00:00
FILE “02. Die Arzte – Scheisstyp.wav” WAVE
TRACK 02 AUDIO
TITLE “Scheisstyp”
PERFORMER “Die Arzte”
INDEX 01 00:00:00
FILE “03. Die Arzte – Paul.wav” WAVE
TRACK 03 AUDIO
TITLE “Paul”
PERFORMER “Die Arzte”
INDEX 01 00:00:00
FILE “04. Die Arzte – Kamelralley.wav” WAVE
TRACK 04 AUDIO
TITLE “Kamelralley”
PERFORMER “Die Arzte”
INDEX 01 00:00:00
FILE “05. Die Arzte – Frank’n’Stein.wav” WAVE
TRACK 05 AUDIO
TITLE “Frank’n’Stein”
PERFORMER “Die Arzte”
INDEX 01 00:00:00
FILE “06. Die Arzte – El Cattivo.wav” WAVE
TRACK 06 AUDIO
TITLE “El Cattivo”
PERFORMER “Die Arzte”
INDEX 01 00:00:00
FILE “07. Die Arzte – Claudia hat ‘nen Schaferhund.wav” WAVE
TRACK 07 AUDIO
TITLE “Claudia hat ‘nen Schaferhund”
PERFORMER “Die Arzte”
INDEX 01 00:00:00
FILE “08. Die Arzte – Madchen.wav” WAVE
TRACK 08 AUDIO
TITLE “Madchen”
PERFORMER “Die Arzte”
INDEX 01 00:00:00
FILE “09. Die Arzte – Mr. Sexpistols.wav” WAVE
TRACK 09 AUDIO
TITLE “Mr. Sexpistols”
PERFORMER “Die Arzte”
INDEX 01 00:00:00
FILE “10. Die Arzte – Micha.wav” WAVE
TRACK 10 AUDIO
TITLE “Micha”
PERFORMER “Die Arzte”
INDEX 01 00:00:00
FILE “11. Die Arzte – Zu Spat.wav” WAVE
TRACK 11 AUDIO
TITLE “Zu Spat”
PERFORMER “Die Arzte”
INDEX 01 00:00:00
TRACK 12 AUDIO
TITLE “Roter Minirock”
PERFORMER “Die Arzte”
INDEX 00 02:43:68
FILE “12. Die Arzte – Roter Minirock.wav” WAVE
INDEX 01 00:00:00
FILE “13. Die Arzte – Schlaflied.wav” WAVE
TRACK 13 AUDIO
TITLE “Schlaflied”
PERFORMER “Die Arzte”
INDEX 01 00:00:00


Leave a Reply

Your email address will not be published. Required fields are marked *

Enter the text from the image below
 

This site uses Akismet to reduce spam. Learn how your comment data is processed.