Die Ärzte – Das Ist Nicht Die Ganze Wahrheit…




Artist: Die Ärzte
Year: 1988
Genre: Punk
Notes: Discogs
Add. Notes:
Cover incl.: Yes
Encoder: FLAC
Bitrate: ~1000 kBit/s (44.1 kHz/16 Bit/s)
Log & Cue incl.: Yes
Size: 300 MB
Password: “slam” (without ” “)


All Downloads/Hosters are compatible

Download 1
KatFile.com
Rapidgator.net
Turbobit.net
FileFactory.com
Download 2
KatFile.com
Rapidgator.net
Turbobit.net
FileFactory.com

Tracklist:

1 - Ohne Dich - 2:49
2 - Baby Ich Tu's - 3:00
3 - Komm Zurück - 3:33
4 - Wilde Welt - 2:51
5 - Westerland - 3:41
6 - Ich Will Dich - 2:18
7 - Elke - 3:22
8 - Blumen - 3:44
9 - Außerirdische - 2:45
10 - Siegerin - 3:10
11 - Bitte Bitte - 3:17
12 - Popstar - 3:12
13 - Gute Zeit - 3:41
14 - ♀ - 1:48

EAC-Log, CUE-Sheed & NFO:

Click to open spoiler
Exact Audio Copy V0.99 prebeta 5 from 4. May 2009

EAC extraction logfile from 18. March 2010, 0:59

Die Ärzte / Das ist nicht die ganze Wahrheit…

Used drive : PIONEER DVD-RW DVRKD08A Adapter: 0 ID: 0

Read mode : Secure
Utilize accurate stream : Yes
Defeat audio cache : Yes
Make use of C2 pointers : No

Read offset correction : 48
Overread into Lead-In and Lead-Out : No
Fill up missing offset samples with silence : Yes
Delete leading and trailing silent blocks : No
Null samples used in CRC calculations : Yes
Used interface : Native Win32 interface for Win NT & 2000
Gap handling : Appended to previous track

Used output format : User Defined Encoder
Selected bitrate : 320 kBit/s
Quality : High
Add ID3 tag : No
Command line compressor : C:\Program Files\Exact Audio Copy\Flac\flac.exe
Additional command line options : -V -8 -T “artist=%a” -T “title=%t” -T “album=%g” -T “date=%y” -T “tracknumber=%n” -T “genre=%m” %s

TOC of the extracted CD

Track | Start | Length | Start sector | End sector
———————————————————
1 | 0:00.00 | 2:49.50 | 0 | 12724
2 | 2:49.50 | 3:00.62 | 12725 | 26286
3 | 5:50.37 | 3:33.13 | 26287 | 42274
4 | 9:23.50 | 2:51.62 | 42275 | 55161
5 | 12:15.37 | 3:41.13 | 55162 | 71749
6 | 15:56.50 | 2:18.50 | 71750 | 82149
7 | 18:15.25 | 3:22.50 | 82150 | 97349
8 | 21:38.00 | 3:44.00 | 97350 | 114149
9 | 25:22.00 | 2:45.37 | 114150 | 126561
10 | 28:07.37 | 3:10.38 | 126562 | 140849
11 | 31:18.00 | 3:17.50 | 140850 | 155674
12 | 34:35.50 | 3:12.25 | 155675 | 170099
13 | 37:48.00 | 3:41.00 | 170100 | 186674
14 | 41:29.00 | 1:49.00 | 186675 | 194849

Track 1

Filename E:\Die Ärzte (1988) Das ist nicht die ganze Wahrheit\01. Ohne dich.wav

Pre-gap length 0:00:02.00

Peak level 95.5 %
Track quality 99.9 %
Test CRC 30F4E316
Copy CRC 30F4E316
Accurately ripped (confidence 23) [9F0E5E04]
Copy OK

Track 2

Filename E:\Die Ärzte (1988) Das ist nicht die ganze Wahrheit\02. Baby ich tu’s.wav

Peak level 92.5 %
Track quality 100.0 %
Test CRC C8BE9615
Copy CRC C8BE9615
Accurately ripped (confidence 24) [1E7C53B0]
Copy OK

Track 3

Filename E:\Die Ärzte (1988) Das ist nicht die ganze Wahrheit\03. Komm zurück.wav

Peak level 95.5 %
Track quality 99.9 %
Test CRC A18A66FC
Copy CRC A18A66FC
Accurately ripped (confidence 25) [A46D280D]
Copy OK

Track 4

Filename E:\Die Ärzte (1988) Das ist nicht die ganze Wahrheit\04. Wilde Welt.wav

Peak level 95.4 %
Track quality 100.0 %
Test CRC FD29B3EF
Copy CRC FD29B3EF
Accurately ripped (confidence 24) [CC72DD46]
Copy OK

Track 5

Filename E:\Die Ärzte (1988) Das ist nicht die ganze Wahrheit\05. Westerland.wav

Peak level 95.5 %
Track quality 99.9 %
Test CRC DE4ACEF8
Copy CRC DE4ACEF8
Accurately ripped (confidence 24) [D8280F35]
Copy OK

Track 6

Filename E:\Die Ärzte (1988) Das ist nicht die ganze Wahrheit\06. Ich will dich.wav

Peak level 95.4 %
Track quality 100.0 %
Test CRC 927EAEB0
Copy CRC 927EAEB0
Accurately ripped (confidence 24) [F5F55337]
Copy OK

Track 7

Filename E:\Die Ärzte (1988) Das ist nicht die ganze Wahrheit\07. Elke.wav

Peak level 88.8 %
Track quality 100.0 %
Test CRC 22009F75
Copy CRC 22009F75
Accurately ripped (confidence 23) [5E49E402]
Copy OK

Track 8

Filename E:\Die Ärzte (1988) Das ist nicht die ganze Wahrheit\08. Blumen.wav

Peak level 92.9 %
Track quality 100.0 %
Test CRC BA625203
Copy CRC BA625203
Accurately ripped (confidence 22) [AE308F89]
Copy OK

Track 9

Filename E:\Die Ärzte (1988) Das ist nicht die ganze Wahrheit\09. Außerirdische.wav

Peak level 96.9 %
Track quality 100.0 %
Test CRC D5076924
Copy CRC D5076924
Accurately ripped (confidence 23) [BFE308F9]
Copy OK

Track 10

Filename E:\Die Ärzte (1988) Das ist nicht die ganze Wahrheit\10. Siegerin.wav

Peak level 93.1 %
Track quality 100.0 %
Test CRC D05D7AB0
Copy CRC D05D7AB0
Accurately ripped (confidence 23) [3D2A67ED]
Copy OK

Track 11

Filename E:\Die Ärzte (1988) Das ist nicht die ganze Wahrheit\11. Bitte bitte.wav

Peak level 90.9 %
Track quality 100.0 %
Test CRC C5E671DF
Copy CRC C5E671DF
Accurately ripped (confidence 23) [3ED9A205]
Copy OK

Track 12

Filename E:\Die Ärzte (1988) Das ist nicht die ganze Wahrheit\12. Popstar.wav

Peak level 97.6 %
Track quality 100.0 %
Test CRC 2965ADF2
Copy CRC 2965ADF2
Accurately ripped (confidence 23) [B5D084C8]
Copy OK

Track 13

Filename E:\Die Ärzte (1988) Das ist nicht die ganze Wahrheit\13. Gute Zeit.wav

Peak level 97.7 %
Track quality 100.0 %
Test CRC ED7B4D36
Copy CRC ED7B4D36
Accurately ripped (confidence 24) [46AA70C7]
Copy OK

Track 14

Filename E:\Die Ärzte (1988) Das ist nicht die ganze Wahrheit\14. ♀.wav

Pre-gap length 0:00:16.74

Peak level 83.4 %
Track quality 100.0 %
Test CRC A350E690
Copy CRC A350E690
Accurately ripped (confidence 22) [35EFB400]
Copy OK

All tracks accurately ripped

No errors occurred

End of status report

REM DATE 1988
REM DISCID C10A260E
CATALOG 0000000000000
PERFORMER “Die Arzte”
TITLE “Das ist nicht die ganze Wahrheit…”
FILE “01. Ohne dich.flac” WAVE
TRACK 01 AUDIO
TITLE “Ohne dich”
PERFORMER “Die Arzte”
INDEX 01 00:00:00
FILE “02. Baby ich tu’s.flac” WAVE
TRACK 02 AUDIO
TITLE “Baby ich tu’s”
PERFORMER “Die Arzte”
INDEX 01 00:00:00
FILE “03. Komm zuruck.flac” WAVE
TRACK 03 AUDIO
TITLE “Komm zuruck”
PERFORMER “Die Arzte”
INDEX 01 00:00:00
FILE “04. Wilde Welt.flac” WAVE
TRACK 04 AUDIO
TITLE “Wilde Welt”
PERFORMER “Die Arzte”
INDEX 01 00:00:00
FILE “05. Westerland.flac” WAVE
TRACK 05 AUDIO
TITLE “Westerland”
PERFORMER “Die Arzte”
INDEX 01 00:00:00
FILE “06. Ich will dich.flac” WAVE
TRACK 06 AUDIO
TITLE “Ich will Dich”
PERFORMER “Die Arzte”
INDEX 01 00:00:00
FILE “07. Elke.flac” WAVE
TRACK 07 AUDIO
TITLE “Elke”
PERFORMER “Die Arzte”
INDEX 01 00:00:00
FILE “08. Blumen.flac” WAVE
TRACK 08 AUDIO
TITLE “Blumen”
PERFORMER “Die Arzte”
INDEX 01 00:00:00
FILE “09. Au_erirdische.flac” WAVE
TRACK 09 AUDIO
TITLE “Au?erirdische”
PERFORMER “Die Arzte”
INDEX 01 00:00:00
FILE “10. Siegerin.flac” WAVE
TRACK 10 AUDIO
TITLE “Siegerin”
PERFORMER “Die Arzte”
INDEX 01 00:00:00
FILE “11. Bitte bitte.flac” WAVE
TRACK 11 AUDIO
TITLE “Bitte bitte”
PERFORMER “Die Arzte”
INDEX 01 00:00:00
FILE “12. Popstar.flac” WAVE
TRACK 12 AUDIO
TITLE “Popstar”
PERFORMER “Die Arzte”
INDEX 01 00:00:00
FILE “13. Gute Zeit.flac” WAVE
TRACK 13 AUDIO
TITLE “Gute Zeit”
PERFORMER “Die Arzte”
INDEX 01 00:00:00
TRACK 14 AUDIO
TITLE “+”
PERFORMER “Die Arzte”
INDEX 00 03:24:01
FILE “14. +.flac” WAVE
INDEX 01 00:00:00


Leave a Reply

Your email address will not be published. Required fields are marked *

This site uses Akismet to reduce spam. Learn how your comment data is processed.