Die Ärzte – Das Beste von kurz nach Früher bis jetze




Artist: Die Ärzte
Year: 1994
Genre: Punk
Notes: Discogs
Add. Notes:
Cover incl.: No
Encoder: FLAC
Bitrate: ~1000 kBit/s (44.1 kHz/16 Bit/s)
Log & Cue incl.: Yes
Size: 999 MB
Password: “slam” (without ” “)


All Downloads/Hosters are compatible

Download 1
KatFile.com
Rapidgator.net
Turbobit.net
FileFactory.com
Download 2
KatFile.com
Rapidgator.net
Turbobit.net
FileFactory.com

Tracklist:

Quark (neuer Text – 135% politisch 
korrekt)
Grace Kelly
Zu spät
Mr. Sexpistols
Käfer
Radio brennt (Dingleberry-Mix)
Ich bin reich
Madonnas Dickdarm (live)
Ist das alles? (Remix ’94)
Ohne dich
Gabi gibt ’ne Party
Und ich weine
Du willst mich küssen (Modern Kissing 
Mix)
Ewige Blumenkraft
Blumen (live)
Das ist Rock’n’Roll
2000 Mädchen (Wumme-Mix)
Zum letzten Mal (Remix ’94)
Friedenspanzer (Neue Super-
Fassung, ehrlich!)
Wie am ersten Tag (Remix ’94)
Alleine in der Nacht
Bitte Bitte (Domina Mix)
Wegen dir (Zeltlagermix)
Elke (live)
Westerland (to the Max)
Außerirdische
Claudia III (live)
Sweet sweet Gwendoline
Gabi & Uwe in: Liebe & Frieden
Baby ich tu’s
Schwanz ab (live)
Gute Zeit (Remix ’94)
Ich weiß nicht, ob es Liebe ist…
Schrei nach Liebe

EAC-Log, CUE-Sheed & NFO:

Click to open spoiler
Exact Audio Copy V0.99 prebeta 4 from 23. January 2008

EAC extraction logfile from 8. June 2009, 19:21

Die Ärzte / Das Beste Von Kurz Nach Früher Bis Jetze – CD 1

Used drive : PLEXTOR DVDR PX-740A Adapter: 1 ID: 1

Read mode : Secure
Utilize accurate stream : Yes
Defeat audio cache : Yes
Make use of C2 pointers : No

Read offset correction : 618
Overread into Lead-In and Lead-Out : No
Fill up missing offset samples with silence : Yes
Delete leading and trailing silent blocks : No
Null samples used in CRC calculations : No
Used interface : Native Win32 interface for Win NT & 2000
Gap handling : Appended to previous track

Used output format : User Defined Encoder
Selected bitrate : 128 kBit/s
Quality : High
Add ID3 tag : No
Command line compressor : C:\Users\1975\Downloads\flac-1.2.1-win\bin\flac.exe
Additional command line options : -V -8 -T “artist=%a” -T “title=%t” -T “album=%g” -T “date=%y” -T “tracknumber=%n” -T “genre=%m” %s

TOC of the extracted CD

Track | Start | Length | Start sector | End sector
———————————————————
1 | 0:00.32 | 2:46.63 | 32 | 12544
2 | 2:47.20 | 2:20.37 | 12545 | 23081
3 | 5:07.57 | 2:45.00 | 23082 | 35456
4 | 7:52.57 | 3:16.13 | 35457 | 50169
5 | 11:08.70 | 2:54.32 | 50170 | 63251
6 | 14:03.27 | 6:58.50 | 63252 | 94651
7 | 21:02.02 | 4:22.43 | 94652 | 114344
8 | 25:24.45 | 2:14.32 | 114345 | 124426
9 | 27:39.02 | 4:38.43 | 124427 | 145319
10 | 32:17.45 | 2:46.02 | 145320 | 157771
11 | 35:03.47 | 3:11.13 | 157772 | 172109
12 | 38:14.60 | 3:05.05 | 172110 | 185989
13 | 41:19.65 | 4:51.32 | 185990 | 207846
14 | 46:11.22 | 3:20.45 | 207847 | 222891
15 | 49:31.67 | 3:11.43 | 222892 | 237259
16 | 52:43.35 | 3:05.42 | 237260 | 251176
17 | 55:49.02 | 5:52.10 | 251177 | 277586
18 | 61:41.12 | 4:29.10 | 277587 | 297771
19 | 66:10.22 | 3:56.10 | 297772 | 315481

Track 1

Filename J:\EAC_rips\Die Ärzte – 1994 – Das Beste Von Kurz Nach Früher Bis Jetze – CD 1\01 – Quark [’94er Remix].wav

Pre-gap length 0:00:02.42

Peak level 98.4 %
Track quality 100.0 %
Test CRC 8A81731E
Copy CRC 8A81731E
Accurately ripped (confidence 12) [33E7E427]
Copy OK

Track 2

Filename J:\EAC_rips\Die Ärzte – 1994 – Das Beste Von Kurz Nach Früher Bis Jetze – CD 1\02 – Grace Kelly.wav

Pre-gap length 0:00:02.50

Peak level 99.0 %
Track quality 100.0 %
Test CRC 1F37F0E8
Copy CRC 1F37F0E8
Accurately ripped (confidence 12) [25D1E0C2]
Copy OK

Track 3

Filename J:\EAC_rips\Die Ärzte – 1994 – Das Beste Von Kurz Nach Früher Bis Jetze – CD 1\03 – Zu spät.wav

Pre-gap length 0:00:02.49

Peak level 99.0 %
Track quality 100.0 %
Test CRC 81180E50
Copy CRC 81180E50
Accurately ripped (confidence 12) [44E1D2B8]
Copy OK

Track 4

Filename J:\EAC_rips\Die Ärzte – 1994 – Das Beste Von Kurz Nach Früher Bis Jetze – CD 1\04 – Mr. Sexpistols.wav

Pre-gap length 0:00:01.73

Peak level 99.0 %
Track quality 100.0 %
Test CRC 86C7A1C1
Copy CRC 86C7A1C1
Accurately ripped (confidence 10) [875E8AE4]
Copy OK

Track 5

Filename J:\EAC_rips\Die Ärzte – 1994 – Das Beste Von Kurz Nach Früher Bis Jetze – CD 1\05 – Käfer.wav

Pre-gap length 0:00:02.44

Peak level 97.2 %
Track quality 100.0 %
Test CRC B5E8A6FD
Copy CRC B5E8A6FD
Accurately ripped (confidence 12) [AF6DB61F]
Copy OK

Track 6

Filename J:\EAC_rips\Die Ärzte – 1994 – Das Beste Von Kurz Nach Früher Bis Jetze – CD 1\06 – Radio brennt [12 Version].wav

Pre-gap length 0:00:01.69

Peak level 97.7 %
Track quality 100.0 %
Test CRC A5A62A41
Copy CRC A5A62A41
Accurately ripped (confidence 11) [702C76EE]
Copy OK

Track 7

Filename J:\EAC_rips\Die Ärzte – 1994 – Das Beste Von Kurz Nach Früher Bis Jetze – CD 1\07 – Ich bin reich.wav

Pre-gap length 0:00:02.00

Peak level 100.0 %
Track quality 100.0 %
Test CRC BA69AE3F
Copy CRC BA69AE3F
Accurately ripped (confidence 9) [D4ABA691]
Copy OK

Track 8

Filename J:\EAC_rips\Die Ärzte – 1994 – Das Beste Von Kurz Nach Früher Bis Jetze – CD 1\08 – Madonnas Dickdarm [Live].wav

Pre-gap length 0:00:02.04

Peak level 99.6 %
Track quality 100.0 %
Test CRC 0DE1213F
Copy CRC 0DE1213F
Accurately ripped (confidence 9) [12B08D60]
Copy OK

Track 9

Filename J:\EAC_rips\Die Ärzte – 1994 – Das Beste Von Kurz Nach Früher Bis Jetze – CD 1\09 – Ist das alles [’94er Remix].wav

Pre-gap length 0:00:02.49

Peak level 98.9 %
Track quality 100.0 %
Test CRC D7F276C5
Copy CRC D7F276C5
Accurately ripped (confidence 12) [AA585AF3]
Copy OK

Track 10

Filename J:\EAC_rips\Die Ärzte – 1994 – Das Beste Von Kurz Nach Früher Bis Jetze – CD 1\10 – Ohne dich.wav

Pre-gap length 0:00:02.13

Peak level 100.0 %
Track quality 99.9 %
Test CRC 9AEFC64D
Copy CRC 9AEFC64D
Accurately ripped (confidence 11) [154C18E4]
Copy OK

Track 11

Filename J:\EAC_rips\Die Ärzte – 1994 – Das Beste Von Kurz Nach Früher Bis Jetze – CD 1\11 – Gabi gibt ‘ne Party.wav

Pre-gap length 0:00:02.53

Peak level 94.6 %
Track quality 100.0 %
Test CRC 522CD76C
Copy CRC 522CD76C
Accurately ripped (confidence 11) [0D5F4B1F]
Copy OK

Track 12

Filename J:\EAC_rips\Die Ärzte – 1994 – Das Beste Von Kurz Nach Früher Bis Jetze – CD 1\12 – Und ich weine.wav

Pre-gap length 0:00:02.50

Peak level 75.7 %
Track quality 100.0 %
Test CRC 8AED8F3B
Copy CRC 8AED8F3B
Accurately ripped (confidence 11) [2A9FEDC4]
Copy OK

Track 13

Filename J:\EAC_rips\Die Ärzte – 1994 – Das Beste Von Kurz Nach Früher Bis Jetze – CD 1\13 – Du willst mich küssen [12 Version].wav

Pre-gap length 0:00:03.04

Peak level 99.0 %
Track quality 100.0 %
Test CRC E8B9D7C1
Copy CRC E8B9D7C1
Accurately ripped (confidence 10) [0F3EDBE2]
Copy OK

Track 14

Filename J:\EAC_rips\Die Ärzte – 1994 – Das Beste Von Kurz Nach Früher Bis Jetze – CD 1\14 – Ewige Blumenkraft.wav

Pre-gap length 0:00:02.02

Peak level 99.4 %
Track quality 100.0 %
Test CRC 682EF226
Copy CRC 682EF226
Accurately ripped (confidence 11) [AB2C1E22]
Copy OK

Track 15

Filename J:\EAC_rips\Die Ärzte – 1994 – Das Beste Von Kurz Nach Früher Bis Jetze – CD 1\15 – Blumen [Live].wav

Pre-gap length 0:00:01.80

Peak level 99.0 %
Track quality 99.9 %
Test CRC 2691B0C7
Copy CRC 2691B0C7
Accurately ripped (confidence 10) [48DFEAF1]
Copy OK

Track 16

Filename J:\EAC_rips\Die Ärzte – 1994 – Das Beste Von Kurz Nach Früher Bis Jetze – CD 1\16 – Das ist Rock’n’Roll.wav

Pre-gap length 0:00:02.37

Peak level 99.4 %
Track quality 100.0 %
Test CRC D0887562
Copy CRC D0887562
Accurately ripped (confidence 10) [5ED9A77E]
Copy OK

Track 17

Filename J:\EAC_rips\Die Ärzte – 1994 – Das Beste Von Kurz Nach Früher Bis Jetze – CD 1\17 – 2000 Mädchen [12 Version].wav

Pre-gap length 0:00:02.53

Peak level 99.8 %
Track quality 100.0 %
Test CRC DD22E9A4
Copy CRC DD22E9A4
Accurately ripped (confidence 10) [02A3E0F4]
Copy OK

Track 18

Filename J:\EAC_rips\Die Ärzte – 1994 – Das Beste Von Kurz Nach Früher Bis Jetze – CD 1\18 – Zum letzten Mal [’94er Remix].wav

Pre-gap length 0:00:02.56

Peak level 96.7 %
Track quality 100.0 %
Test CRC 0C51711F
Copy CRC 0C51711F
Accurately ripped (confidence 10) [2231010F]
Copy OK

Track 19

Filename J:\EAC_rips\Die Ärzte – 1994 – Das Beste Von Kurz Nach Früher Bis Jetze – CD 1\19 – Friedenspanzer.wav

Pre-gap length 0:00:02.82

Peak level 97.2 %
Track quality 99.9 %
Test CRC 104A91E1
Copy CRC 104A91E1
Accurately ripped (confidence 10) [3DE0B3F2]
Copy OK

All tracks accurately ripped

No errors occurred

End of status report

Exact Audio Copy V0.99 prebeta 4 from 23. January 2008

EAC extraction logfile from 8. June 2009, 21:20

Die Ärzte / Das Beste Von Kurz Nach Früher Bis Jetze (CD 2)

Used drive : PLEXTOR DVDR PX-740A Adapter: 1 ID: 1

Read mode : Secure
Utilize accurate stream : Yes
Defeat audio cache : Yes
Make use of C2 pointers : No

Read offset correction : 618
Overread into Lead-In and Lead-Out : No
Fill up missing offset samples with silence : Yes
Delete leading and trailing silent blocks : No
Null samples used in CRC calculations : No
Used interface : Native Win32 interface for Win NT & 2000
Gap handling : Appended to previous track

Used output format : User Defined Encoder
Selected bitrate : 128 kBit/s
Quality : High
Add ID3 tag : No
Command line compressor : C:\Users\1975\Downloads\flac-1.2.1-win\bin\flac.exe
Additional command line options : -V -8 -T “artist=%a” -T “title=%t” -T “album=%g” -T “date=%y” -T “tracknumber=%n” -T “genre=%m” %s

TOC of the extracted CD

Track | Start | Length | Start sector | End sector
———————————————————
1 | 0:00.00 | 3:45.17 | 0 | 16891
2 | 3:45.17 | 2:49.18 | 16892 | 29584
3 | 6:34.35 | 7:35.15 | 29585 | 63724
4 | 14:09.50 | 3:09.22 | 63725 | 77921
5 | 17:18.72 | 4:01.10 | 77922 | 96006
6 | 21:20.07 | 9:55.65 | 96007 | 140696
7 | 31:15.72 | 2:42.13 | 140697 | 152859
8 | 33:58.10 | 3:40.17 | 152860 | 169376
9 | 37:38.27 | 2:50.35 | 169377 | 182161
10 | 40:28.62 | 3:25.05 | 182162 | 197541
11 | 43:53.67 | 3:09.13 | 197542 | 211729
12 | 47:03.05 | 10:17.00 | 211730 | 258004
13 | 57:20.05 | 3:33.12 | 258005 | 273991
14 | 60:53.17 | 3:50.38 | 273992 | 291279
15 | 64:43.55 | 4:13.52 | 291280 | 310306

Track 1

Filename J:\EAC_rips\Die Ärzte – 1994 – Das Beste Von Kurz Nach Früher Bis Jetze (CD 2)\01 – Wie am ersten Tag [’94er Remix].wav

Pre-gap length 0:00:02.00

Peak level 100.0 %
Track quality 100.0 %
Test CRC 4B2147D5
Copy CRC 4B2147D5
Accurately ripped (confidence 26) [8312AF99]
Copy OK

Track 2

Filename J:\EAC_rips\Die Ärzte – 1994 – Das Beste Von Kurz Nach Früher Bis Jetze (CD 2)\02 – Alleine in der Nacht.wav

Pre-gap length 0:00:01.97

Peak level 99.0 %
Track quality 100.0 %
Test CRC A79CED52
Copy CRC A79CED52
Accurately ripped (confidence 25) [509A107C]
Copy OK

Track 3

Filename J:\EAC_rips\Die Ärzte – 1994 – Das Beste Von Kurz Nach Früher Bis Jetze (CD 2)\03 – Bitte Bitte [12 Version].wav

Pre-gap length 0:00:02.69

Peak level 100.0 %
Track quality 100.0 %
Test CRC A44BF6DB
Copy CRC A44BF6DB
Accurately ripped (confidence 26) [8A9DB073]
Copy OK

Track 4

Filename J:\EAC_rips\Die Ärzte – 1994 – Das Beste Von Kurz Nach Früher Bis Jetze (CD 2)\04 – Wegen Dir [Zeltlagermix].wav

Pre-gap length 0:00:03.10

Peak level 97.4 %
Track quality 100.0 %
Test CRC 80F62A7C
Copy CRC 80F62A7C
Accurately ripped (confidence 25) [AD5B3EEF]
Copy OK

Track 5

Filename J:\EAC_rips\Die Ärzte – 1994 – Das Beste Von Kurz Nach Früher Bis Jetze (CD 2)\05 – Elke [Live].wav

Pre-gap length 0:00:02.54

Peak level 100.0 %
Track quality 100.0 %
Test CRC EEB0E869
Copy CRC EEB0E869
Accurately ripped (confidence 27) [C9954666]
Copy OK

Track 6

Filename J:\EAC_rips\Die Ärzte – 1994 – Das Beste Von Kurz Nach Früher Bis Jetze (CD 2)\06 – Westerland [Kommerzmix to the Max].wav

Pre-gap length 0:00:02.42

Peak level 98.7 %
Track quality 100.0 %
Test CRC CAECE12C
Copy CRC CAECE12C
Accurately ripped (confidence 25) [250D7759]
Copy OK

Track 7

Filename J:\EAC_rips\Die Ärzte – 1994 – Das Beste Von Kurz Nach Früher Bis Jetze (CD 2)\07 – Außerirdische.wav

Pre-gap length 0:00:02.57

Peak level 100.0 %
Track quality 100.0 %
Test CRC F42ED443
Copy CRC F42ED443
Accurately ripped (confidence 25) [A7F6F155]
Copy OK

Track 8

Filename J:\EAC_rips\Die Ärzte – 1994 – Das Beste Von Kurz Nach Früher Bis Jetze (CD 2)\08 – Claudia III [Live].wav

Pre-gap length 0:00:02.50

Peak level 100.0 %
Track quality 100.0 %
Test CRC 5558FE48
Copy CRC 5558FE48
Accurately ripped (confidence 26) [C608AFCE]
Copy OK

Track 9

Filename J:\EAC_rips\Die Ärzte – 1994 – Das Beste Von Kurz Nach Früher Bis Jetze (CD 2)\09 – Gwendoline.wav

Pre-gap length 0:00:02.25

Peak level 99.0 %
Track quality 100.0 %
Test CRC 3B0EB0EA
Copy CRC 3B0EB0EA
Accurately ripped (confidence 25) [EF03352D]
Copy OK

Track 10

Filename J:\EAC_rips\Die Ärzte – 1994 – Das Beste Von Kurz Nach Früher Bis Jetze (CD 2)\10 – Gabi & Uwe in- Liebe und Frieden.wav

Pre-gap length 0:00:01.74

Peak level 100.0 %
Track quality 100.0 %
Test CRC 10735A92
Copy CRC 10735A92
Accurately ripped (confidence 26) [7DCB9678]
Copy OK

Track 11

Filename J:\EAC_rips\Die Ärzte – 1994 – Das Beste Von Kurz Nach Früher Bis Jetze (CD 2)\11 – Baby ich tu’s.wav

Pre-gap length 0:00:02.49

Peak level 99.0 %
Track quality 100.0 %
Test CRC 42053754
Copy CRC 42053754
Accurately ripped (confidence 25) [4B388E42]
Copy OK

Track 12

Filename J:\EAC_rips\Die Ärzte – 1994 – Das Beste Von Kurz Nach Früher Bis Jetze (CD 2)\12 – Weiblichkeit [Live].wav

Pre-gap length 0:00:02.41

Peak level 95.8 %
Track quality 100.0 %
Test CRC 64B2F72F
Copy CRC 64B2F72F
Accurately ripped (confidence 24) [59BDE4E6]
Copy OK

Track 13

Filename J:\EAC_rips\Die Ärzte – 1994 – Das Beste Von Kurz Nach Früher Bis Jetze (CD 2)\13 – Gute Zeit [’94er Remix].wav

Pre-gap length 0:00:02.34

Peak level 97.2 %
Track quality 99.9 %
Test CRC 3F3DA72A
Copy CRC 3F3DA72A
Accurately ripped (confidence 25) [F89DEB9C]
Copy OK

Track 14

Filename J:\EAC_rips\Die Ärzte – 1994 – Das Beste Von Kurz Nach Früher Bis Jetze (CD 2)\14 – Ich weiß nicht, ob es Liebe ist….wav

Pre-gap length 0:00:02.65

Peak level 89.6 %
Track quality 100.0 %
Test CRC AADC323B
Copy CRC AADC323B
Accurately ripped (confidence 24) [52835E4F]
Copy OK

Track 15

Filename J:\EAC_rips\Die Ärzte – 1994 – Das Beste Von Kurz Nach Früher Bis Jetze (CD 2)\15 – Schrei nach Liebe.wav

Pre-gap length 0:00:02.57

Peak level 99.0 %
Track quality 99.9 %
Test CRC BB54969B
Copy CRC BB54969B
Accurately ripped (confidence 26) [678F9967]
Copy OK

All tracks accurately ripped

No errors occurred

End of status report

REM ACCURATERIPID 002d9c73-0288c968-1a106e13
REM GENRE “Punk”
REM DATE 1994
REM DISCID 1A106E13
REM COMMENT “ExactAudioCopy v0.99pb4”
PERFORMER “Die Arzte”
TITLE “Das Beste Von Kurz Nach Fruher Bis Jetze (CD 1)”
TRACK 01 AUDIO
TITLE “Quark [’94er Remix]”
PERFORMER “Die Arzte”
FILE “01 – Quark [’94er Remix].flac” WAVE
PREGAP 00:02:42
INDEX 01 00:00:00
TRACK 02 AUDIO
FLAGS DCP
TITLE “Grace Kelly”
PERFORMER “Die Arzte”
INDEX 00 02:44:25
FILE “02 – Grace Kelly.flac” WAVE
INDEX 01 00:00:00
TRACK 03 AUDIO
FLAGS DCP
TITLE “Zu spat”
PERFORMER “Die Arzte”
INDEX 00 02:18:00
FILE “03 – Zu spat.flac” WAVE
INDEX 01 00:00:00
TRACK 04 AUDIO
FLAGS DCP
TITLE “Mr. Sexpistols”
PERFORMER “Die Arzte”
INDEX 00 02:43:20
FILE “04 – Mr. Sexpistols.flac” WAVE
INDEX 01 00:00:00
TRACK 05 AUDIO
FLAGS DCP
TITLE “Kafer”
PERFORMER “Die Arzte”
INDEX 00 03:13:55
FILE “05 – Kafer.flac” WAVE
INDEX 01 00:00:00
TRACK 06 AUDIO
FLAGS DCP
TITLE “Radio brennt [12 Version]”
PERFORMER “Die Arzte”
INDEX 00 02:52:55
FILE “06 – Radio brennt [12 Version].flac” WAVE
INDEX 01 00:00:00
TRACK 07 AUDIO
FLAGS DCP
TITLE “Ich bin reich”
PERFORMER “Die Arzte”
INDEX 00 06:56:50
FILE “07 – Ich bin reich.flac” WAVE
INDEX 01 00:00:00
TRACK 08 AUDIO
FLAGS DCP
TITLE “Madonnas Dickdarm [Live]”
PERFORMER “Die Arzte”
INDEX 00 04:20:40
FILE “08 – Madonnas Dickdarm [Live].flac” WAVE
INDEX 01 00:00:00
TRACK 09 AUDIO
FLAGS DCP
TITLE “Ist das alles? [’94er Remix]”
PERFORMER “Die Arzte”
INDEX 00 02:11:70
FILE “09 – Ist das alles [’94er Remix].flac” WAVE
INDEX 01 00:00:00
TRACK 10 AUDIO
FLAGS DCP
TITLE “Ohne dich”
PERFORMER “Die Arzte”
INDEX 00 04:36:33
FILE “10 – Ohne dich.flac” WAVE
INDEX 01 00:00:00
TRACK 11 AUDIO
FLAGS DCP
TITLE “Gabi gibt ‘ne Party”
PERFORMER “Die Arzte”
INDEX 00 02:43:37
FILE “11 – Gabi gibt ‘ne Party.flac” WAVE
INDEX 01 00:00:00
TRACK 12 AUDIO
FLAGS DCP
TITLE “Und ich weine”
PERFORMER “Die Arzte”
INDEX 00 03:08:50
FILE “12 – Und ich weine.flac” WAVE
INDEX 01 00:00:00
TRACK 13 AUDIO
FLAGS DCP
TITLE “Du willst mich kussen [12 Version]”
PERFORMER “Die Arzte”
INDEX 00 03:02:02
FILE “13 – Du willst mich kussen [12 Version].flac” WAVE
INDEX 01 00:00:00
TRACK 14 AUDIO
FLAGS DCP
TITLE “Ewige Blumenkraft”
PERFORMER “Die Arzte”
INDEX 00 04:49:30
FILE “14 – Ewige Blumenkraft.flac” WAVE
INDEX 01 00:00:00
TRACK 15 AUDIO
FLAGS DCP
TITLE “Blumen [Live]”
PERFORMER “Die Arzte”
INDEX 00 03:18:60
FILE “15 – Blumen [Live].flac” WAVE
INDEX 01 00:00:00
TRACK 16 AUDIO
FLAGS DCP
TITLE “Das ist Rock’n’Roll”
PERFORMER “Die Arzte”
INDEX 00 03:09:15
FILE “16 – Das ist Rock’n’Roll.flac” WAVE
INDEX 01 00:00:00
TRACK 17 AUDIO
FLAGS DCP
TITLE “2000 Madchen [12 Version]”
PERFORMER “Die Arzte”
INDEX 00 03:03:02
FILE “17 – 2000 Madchen [12 Version].flac” WAVE
INDEX 01 00:00:00
TRACK 18 AUDIO
FLAGS DCP
TITLE “Zum letzten Mal [’94er Remix]”
PERFORMER “Die Arzte”
INDEX 00 05:49:43
FILE “18 – Zum letzten Mal [’94er Remix].flac” WAVE
INDEX 01 00:00:00
TRACK 19 AUDIO
FLAGS DCP
TITLE “Friedenspanzer”
PERFORMER “Die Arzte”
INDEX 00 04:26:23
FILE “19 – Friedenspanzer.flac” WAVE
INDEX 01 00:00:00

REM ACCURATERIPID 0025b893-01ad4cfb-c810290f
REM GENRE “Punk”
REM DATE 1994
REM DISCID C810290F
REM COMMENT “ExactAudioCopy v0.99pb4”
PERFORMER “Die Arzte”
TITLE “Das Beste Von Kurz Nach Fruher Bis Jetze (CD 2)”
FILE “01 – Wie am ersten Tag [’94er Remix].flac” WAVE
TRACK 01 AUDIO
TITLE “Wie am ersten Tag [’94er Remix]”
PERFORMER “Die Arzte”
PREGAP 00:02:00
INDEX 01 00:00:00
TRACK 02 AUDIO
FLAGS DCP
TITLE “Alleine in der Nacht”
PERFORMER “Die Arzte”
INDEX 00 03:43:19
FILE “02 – Alleine in der Nacht.flac” WAVE
INDEX 01 00:00:00
TRACK 03 AUDIO
FLAGS DCP
TITLE “Bitte Bitte [12 Version]”
PERFORMER “Die Arzte”
INDEX 00 02:46:41
FILE “03 – Bitte Bitte [12 Version].flac” WAVE
INDEX 01 00:00:00
TRACK 04 AUDIO
FLAGS DCP
TITLE “Wegen Dir [Zeltlagermix]”
PERFORMER “Die Arzte”
INDEX 00 07:32:07
FILE “04 – Wegen Dir [Zeltlagermix].flac” WAVE
INDEX 01 00:00:00
TRACK 05 AUDIO
FLAGS DCP
TITLE “Elke [Live]”
PERFORMER “Die Arzte”
INDEX 00 03:06:56
FILE “05 – Elke [Live].flac” WAVE
INDEX 01 00:00:00
TRACK 06 AUDIO
FLAGS DCP
TITLE “Westerland [Kommerzmix to the Max]”
PERFORMER “Die Arzte”
INDEX 00 03:58:53
FILE “06 – Westerland [Kommerzmix to the Max].flac” WAVE
INDEX 01 00:00:00
TRACK 07 AUDIO
FLAGS DCP
TITLE “Au?erirdische”
PERFORMER “Die Arzte”
INDEX 00 09:53:22
FILE “07 – Ausserirdische.flac” WAVE
INDEX 01 00:00:00
TRACK 08 AUDIO
FLAGS DCP
TITLE “Claudia III [Live]”
PERFORMER “Die Arzte”
INDEX 00 02:39:50
FILE “08 – Claudia III [Live].flac” WAVE
INDEX 01 00:00:00
TRACK 09 AUDIO
FLAGS DCP
TITLE “Gwendoline”
PERFORMER “Die Arzte”
INDEX 00 03:37:73
FILE “09 – Gwendoline.flac” WAVE
INDEX 01 00:00:00
TRACK 10 AUDIO
FLAGS DCP
TITLE “Gabi & Uwe in: Liebe und Frieden”
PERFORMER “Die Arzte”
INDEX 00 02:48:54
FILE “10 – Gabi & Uwe in- Liebe und Frieden.flac” WAVE
INDEX 01 00:00:00
TRACK 11 AUDIO
FLAGS DCP
TITLE “Baby ich tu’s”
PERFORMER “Die Arzte”
INDEX 00 03:22:43
FILE “11 – Baby ich tu’s.flac” WAVE
INDEX 01 00:00:00
TRACK 12 AUDIO
FLAGS DCP
TITLE “Weiblichkeit [Live]”
PERFORMER “Die Arzte”
INDEX 00 03:06:57
FILE “12 – Weiblichkeit [Live].flac” WAVE
INDEX 01 00:00:00
TRACK 13 AUDIO
FLAGS DCP
TITLE “Gute Zeit [’94er Remix]”
PERFORMER “Die Arzte”
INDEX 00 10:14:49
FILE “13 – Gute Zeit [’94er Remix].flac” WAVE
INDEX 01 00:00:00
TRACK 14 AUDIO
FLAGS DCP
TITLE “Ich wei? nicht, ob es Liebe ist…”
PERFORMER “Die Arzte”
INDEX 00 03:30:38
FILE “14 – Ich weiss nicht, ob es Liebe ist….flac” WAVE
INDEX 01 00:00:00
TRACK 15 AUDIO
FLAGS DCP
TITLE “Schrei nach Liebe”
PERFORMER “Die Arzte”
INDEX 00 03:47:70
FILE “15 – Schrei nach Liebe.flac” WAVE
INDEX 01 00:00:00


Leave a Reply

Your email address will not be published. Required fields are marked *

Enter the text from the image below
 

This site uses Akismet to reduce spam. Learn how your comment data is processed.