Die Ärzte – Bäst Of




Artist: Die Ärzte
Year: 2006
Genre: Punk
Notes: Discogs
Add. Notes:
Cover incl.: Yes
Encoder: FLAC
Bitrate: ~1100 kBit/s (44.1 kHz/16 Bit/s)
Log & Cue incl.: Yes
Size: 1323,67 MB
Password: “slam” (without ” “)


All Downloads/Hosters are compatible

Download 1
Turbobit.net
Rapidgator.net
UploadByte.com
UploadEver.com
JustUpload.io
Download 2
Turbobit.net
Rapidgator.net
UploadByte.com
UploadEver.com
JustUpload.io
Download 3
Turbobit.net
Rapidgator.net
UploadByte.com
UploadEver.com
JustUpload.io

Tracklist:

Alle Singles Seit 1993
1-1 - Schrei Nach Liebe 	4:12
1-2 - Mach Die Augen Zu 	3:58
1-3 - Friedenspanzer (Single-Version) 	3:58
1-4 - Quark (Album-Version) 	2:45
1-5 - Kopfüber In Die Hölle / Revolution 	2:59
1-6 - Schunder-Song (Single-Version) 	2:58
1-7 - Hurra (Single-Version) 	3:26
1-8 - 3-Tage-Bart 	3:02
1-9 - Mein Baby War Beim Frisör 	2:15
1-10 - Männer Sind Schweine (Album-Version) 	4:27
1-11 - Goldenes Handwerk 	3:34
1-12 - 1/2 Lovesong 	3:52
1-13 - Rebell 	3:51
1-14 - Elke (Live, Single-Version) 	3:37
1-15 - Wie Es Geht (Single-Version) 	3:42
1-16 - Manchmal Haben Frauen... 	4:13
1-17 - Yoko Ono (Album-Version) 	0:31
1-18 - Rock'N'Roll-Übermensch (Single-Version) 	3:54
1-19 - Komm Zurück (Unplugged) 	3:28
1-20 - Die Banane (Unplugged) 	4:59
1-21 - Unrockbar (Single-Version) 	3:44
1-22 - Dinge Von Denen 	3:54
1-23 - Nichts In Der Welt 	3:51
1-24 - Deine Schuld 	3:35
1-25 - Die Klügsten Männer Der Welt 	3:58
B-Seiten
2-1 - Wahre Liebe 	3:12
2-2 - Punkrockgirl (Originalversion) 	1:50
2-3 - Stick It Out/What's The Ugliest Part Of Your Body 
	3:08
2-4 - Regierung 	2:30
2-5 - Sex Me, Baby 	2:51
2-6 - Warrumska 	3:50
2-7 - Saufen 	3:47
2-8 - Ein Lächeln (Für Jeden Tag Deines Lebens) 	4:21
2-9 - Wunderbare Welt Des Farin U. 	2:49
2-10 - Rod Army 	2:49
2-11 - Ein Lied Über Zensur 	3:19
2-12 - Schlimm 	3:33
2-13 - Danke Für Jeden Guten Morgen 	2:42
2-14 	–Götz Alsmann Band Feat. Die Ärzte 	Punk 
Ist... 	3:22
2-15 - Backpfeifengesicht 	2:23
2-16 - Alles Für Dich 	4:09
2-17 - Die Instrumente Des Orchesters 	2:36
2-18 - Kpt. Blaubär (Extended Version) 	4:14
2-19 - Rettet Die Wale 	1:48
2-20 - Die Welt Ist Schlecht 	3:39
2-21 - Kontovollmacht... 	4:37
2-22 - Aus Dem Tagebuch Eines Amokläufers 	2:35
2-23 - Biergourmet (Unplugged) 	1:55
2-24 - Frank'N'Stein (Syllable-Jive-Version) 	2:31
Zusamm'fassung (Extended 1-13)
2-25 - Zusamm'fassung (Extended 1) 	1:28
2-26 - Zusamm'fassung (Extended 2) 	0:47
2-27 - Zusamm'fassung (Extended 3) 	0:28
2-28 - Zusamm'fassung (Extended 4) 	1:07
2-29 - Zusamm'fassung (Extended 5) 	1:16
2-30 - Zusamm'fassung (Extended 6) 	0:52
2-31 - Zusamm'fassung (Extended 7) 	1:35
2-32 - Zusamm'fassung (Extended 8) 	0:59
2-33 - Zusamm'fassung (Extended 9) 	1:19
2-34 - Zusamm'fassung (Extended 10) 	0:55
2-35 - Zusamm'fassung (Extended 11) 	1:10
2-36 - Zusamm'fassung (Extended 12) 	0:58
2-37 - Zusamm'fassung (Extended 13) 	1:39
2 Lovesong
What's The Ugliest Part Of Your Body

EAC-Log, CUE-Sheed & NFO:

Click to open spoiler
Exact Audio Copy V0.99 prebeta 3 from 28. July 2007

EAC extraction logfile from 4. December 2008, 3:43

Die Ärzte / Bäst Of (disc 1: Alle Singles seit 1993)

Used drive : HP DVD Writer 840b Adapter: 1 ID: 1

Read mode : Secure
Utilize accurate stream : Yes
Defeat audio cache : Yes
Make use of C2 pointers : No

Read offset correction : 102
Overread into Lead-In and Lead-Out : No
Fill up missing offset samples with silence : Yes
Delete leading and trailing silent blocks : No
Null samples used in CRC calculations : Yes
Used interface : Native Win32 interface for Win NT & 2000
Gap handling : Appended to previous track

Used output format : User Defined Encoder
Selected bitrate : 320 kBit/s
Quality : High
Add ID3 tag : No
Command line compressor : C:\Programme\FLAC\flac.exe
Additional command line options : -8 -A tukey(0.25) -A gauss(0.1875) -b 4096 -V -T “artist=%a” -T “title=%t” -T “album=%g” -T “date=%y” -T “tracknumber=%n” -T “genre=%m” %s –sector-align

TOC of the extracted CD

Track | Start | Length | Start sector | End sector
———————————————————
1 | 0:00.00 | 4:14.08 | 0 | 19057
2 | 4:14.08 | 4:00.09 | 19058 | 37066
3 | 8:14.17 | 4:00.11 | 37067 | 55077
4 | 12:14.28 | 2:47.46 | 55078 | 67648
5 | 15:01.74 | 3:01.11 | 67649 | 81234
6 | 18:03.10 | 3:00.37 | 81235 | 94771
7 | 21:03.47 | 3:28.06 | 94772 | 110377
8 | 24:31.53 | 3:04.37 | 110378 | 124214
9 | 27:36.15 | 2:17.15 | 124215 | 134504
10 | 29:53.30 | 4:29.28 | 134505 | 154707
11 | 34:22.58 | 3:36.65 | 154708 | 170972
12 | 37:59.48 | 3:54.10 | 170973 | 188532
13 | 41:53.58 | 3:53.36 | 188533 | 206043
14 | 45:47.19 | 3:39.59 | 206044 | 222527
15 | 49:27.03 | 3:44.16 | 222528 | 239343
16 | 53:11.19 | 4:15.68 | 239344 | 258536
17 | 57:27.12 | 0:33.04 | 258537 | 261015
18 | 58:00.16 | 3:56.59 | 261016 | 278774
19 | 61:57.00 | 3:30.70 | 278775 | 294594
20 | 65:27.70 | 5:01.37 | 294595 | 317206
21 | 70:29.32 | 3:46.69 | 317207 | 334225
22 | 74:16.26 | 3:56.30 | 334226 | 351955
23 | 78:12.56 | 3:52.71 | 351956 | 369426
24 | 82:05.52 | 3:37.46 | 369427 | 385747
25 | 85:43.23 | 3:59.52 | 385748 | 403724

Track 1

Filename C:\desk\01 – Schrei nach Liebe.wav

Pre-gap length 0:00:02.00

Peak level 98.6 %
Track quality 100.0 %
Test CRC 7426C139
Copy CRC 7426C139
Accurately ripped (confidence 64) [AF40BCD5]
Copy OK

Track 2

Filename C:\desk\02 – Mach die Augen zu.wav

Peak level 98.6 %
Track quality 100.0 %
Test CRC AE24B8AF
Copy CRC AE24B8AF
Accurately ripped (confidence 62) [1391B7B2]
Copy OK

Track 3

Filename C:\desk\03 – Friedenspanzer.wav

Peak level 98.6 %
Track quality 100.0 %
Test CRC 9F27190B
Copy CRC 9F27190B
Accurately ripped (confidence 64) [1070FF3D]
Copy OK

Track 4

Filename C:\desk\04 – Quark.wav

Peak level 98.6 %
Track quality 100.0 %
Test CRC 6E5CFE6D
Copy CRC 6E5CFE6D
Accurately ripped (confidence 64) [3DD904FC]
Copy OK

Track 5

Filename C:\desk\05 – Kopfüber in die Hölle.wav

Peak level 98.6 %
Track quality 100.0 %
Test CRC AABBDA54
Copy CRC AABBDA54
Accurately ripped (confidence 65) [477BF8AC]
Copy OK

Track 6

Filename C:\desk\06 – Schunder-Song.wav

Peak level 98.6 %
Track quality 100.0 %
Test CRC C73BDDEB
Copy CRC C73BDDEB
Accurately ripped (confidence 64) [187A1D37]
Copy OK

Track 7

Filename C:\desk\07 – Hurra.wav

Peak level 98.6 %
Track quality 100.0 %
Test CRC 8FBC7708
Copy CRC 8FBC7708
Accurately ripped (confidence 64) [DAC51389]
Copy OK

Track 8

Filename C:\desk\08 – 3-Tage-Bart.wav

Peak level 98.6 %
Track quality 100.0 %
Test CRC 4E319965
Copy CRC 4E319965
Accurately ripped (confidence 64) [BE19215B]
Copy OK

Track 9

Filename C:\desk\09 – Mein Baby war beim Frisör.wav

Peak level 98.6 %
Track quality 100.0 %
Test CRC E1BF0AFB
Copy CRC E1BF0AFB
Accurately ripped (confidence 64) [2BA5670D]
Copy OK

Track 10

Filename C:\desk\10 – Männer sind Schweine.wav

Peak level 98.6 %
Track quality 100.0 %
Test CRC 4CE69B44
Copy CRC 4CE69B44
Accurately ripped (confidence 63) [39F23D69]
Copy OK

Track 11

Filename C:\desk\11 – Goldenes Handwerk.wav

Peak level 98.6 %
Track quality 100.0 %
Test CRC F55D88D2
Copy CRC F55D88D2
Accurately ripped (confidence 64) [1FF9B146]
Copy OK

Track 12

Filename C:\desk\12 – 1-2 Lovesong.wav

Peak level 98.6 %
Track quality 100.0 %
Test CRC 8493AE70
Copy CRC 8493AE70
Accurately ripped (confidence 65) [734D4249]
Copy OK

Track 13

Filename C:\desk\13 – Rebell.wav

Peak level 98.6 %
Track quality 100.0 %
Test CRC C80BD702
Copy CRC C80BD702
Accurately ripped (confidence 64) [2823BB61]
Copy OK

Track 14

Filename C:\desk\14 – Elke.wav

Peak level 98.6 %
Track quality 100.0 %
Test CRC EABE859E
Copy CRC EABE859E
Accurately ripped (confidence 63) [DDB0EB9A]
Copy OK

Track 15

Filename C:\desk\15 – Wie es geht.wav

Peak level 98.6 %
Track quality 100.0 %
Test CRC 3B672A14
Copy CRC 3B672A14
Accurately ripped (confidence 65) [158B58ED]
Copy OK

Track 16

Filename C:\desk\16 – Manchmal haben Frauen ….wav

Peak level 98.6 %
Track quality 100.0 %
Test CRC 76010633
Copy CRC 76010633
Accurately ripped (confidence 64) [5BB3E047]
Copy OK

Track 17

Filename C:\desk\17 – Yoko Ono.wav

Peak level 98.6 %
Track quality 100.0 %
Test CRC 4555D579
Copy CRC 4555D579
Accurately ripped (confidence 64) [4BDC6E8E]
Copy OK

Track 18

Filename C:\desk\18 – Rock’n’Roll-Übermensch.wav

Peak level 98.6 %
Track quality 99.9 %
Test CRC D5BC46D4
Copy CRC D5BC46D4
Accurately ripped (confidence 65) [4E4F8C89]
Copy OK

Track 19

Filename C:\desk\19 – Komm zurück.wav

Peak level 98.6 %
Track quality 100.0 %
Test CRC 3FABA081
Copy CRC 3FABA081
Accurately ripped (confidence 64) [D64B92C0]
Copy OK

Track 20

Filename C:\desk\20 – Die Banane.wav

Peak level 98.6 %
Track quality 99.9 %
Test CRC 73CEA560
Copy CRC 73CEA560
Accurately ripped (confidence 64) [8D98927E]
Copy OK

Track 21

Filename C:\desk\21 – Unrockbar.wav

Peak level 98.6 %
Track quality 100.0 %
Test CRC F63911B7
Copy CRC F63911B7
Accurately ripped (confidence 64) [AC53044F]
Copy OK

Track 22

Filename C:\desk\22 – Dinge von denen.wav

Peak level 98.6 %
Track quality 100.0 %
Test CRC FD8A7127
Copy CRC FD8A7127
Accurately ripped (confidence 63) [D5044B8E]
Copy OK

Track 23

Filename C:\desk\23 – Nichts in der Welt.wav

Peak level 98.6 %
Track quality 100.0 %
Test CRC D0BC8B30
Copy CRC D0BC8B30
Accurately ripped (confidence 64) [26B25CDE]
Copy OK

Track 24

Filename C:\desk\24 – Deine Schuld.wav

Peak level 98.6 %
Track quality 100.0 %
Test CRC 8FD7CD04
Copy CRC 8FD7CD04
Accurately ripped (confidence 64) [14BE0F6D]
Copy OK

Track 25

Filename C:\desk\25 – Die klügsten Männer der Welt.wav

Peak level 98.6 %
Track quality 100.0 %
Test CRC 47B70039
Copy CRC 47B70039
Accurately ripped (confidence 63) [01DF73CB]
Copy OK

All tracks accurately ripped

No errors occurred

End of status report
Exact Audio Copy V0.99 prebeta 3 from 28. July 2007

EAC extraction logfile from 4. December 2008, 13:06

Die Ärzte / Bäst Of (disc 2: B-Seiten)

Used drive : HP DVD Writer 840b Adapter: 1 ID: 1

Read mode : Secure
Utilize accurate stream : Yes
Defeat audio cache : Yes
Make use of C2 pointers : No

Read offset correction : 102
Overread into Lead-In and Lead-Out : No
Fill up missing offset samples with silence : Yes
Delete leading and trailing silent blocks : No
Null samples used in CRC calculations : Yes
Used interface : Native Win32 interface for Win NT & 2000
Gap handling : Appended to previous track

Used output format : User Defined Encoder
Selected bitrate : 320 kBit/s
Quality : High
Add ID3 tag : No
Command line compressor : C:\Programme\FLAC\flac.exe
Additional command line options : -8 -A tukey(0.25) -A gauss(0.1875) -b 4096 -V -T “artist=%a” -T “title=%t” -T “album=%g” -T “date=%y” -T “tracknumber=%n” -T “genre=%m” %s –sector-align

TOC of the extracted CD

Track | Start | Length | Start sector | End sector
———————————————————
1 | 0:00.00 | 3:13.18 | 0 | 14492
2 | 3:13.18 | 1:51.00 | 14493 | 22817
3 | 5:04.18 | 3:09.12 | 22818 | 37004
4 | 8:13.30 | 2:31.74 | 37005 | 48403
5 | 10:45.29 | 2:52.65 | 48404 | 61368
6 | 13:38.19 | 3:50.70 | 61369 | 78688
7 | 17:29.14 | 3:48.22 | 78689 | 95810
8 | 21:17.36 | 4:22.10 | 95811 | 115470
9 | 25:39.46 | 2:50.00 | 115471 | 128220
10 | 28:29.46 | 2:50.45 | 128221 | 141015
11 | 31:20.16 | 3:20.45 | 141016 | 156060
12 | 34:40.61 | 3:34.44 | 156061 | 172154
13 | 38:15.30 | 2:43.41 | 172155 | 184420
14 | 40:58.71 | 3:22.74 | 184421 | 199644
15 | 44:21.70 | 2:24.55 | 199645 | 210499
16 | 46:46.50 | 4:10.52 | 210500 | 229301
17 | 50:57.27 | 2:37.57 | 229302 | 241133
18 | 53:35.09 | 4:15.41 | 241134 | 260299
19 | 57:50.50 | 1:49.57 | 260300 | 268531
20 | 59:40.32 | 3:39.50 | 268532 | 285006
21 | 63:20.07 | 4:38.18 | 285007 | 305874
22 | 67:58.25 | 2:36.02 | 305875 | 317576
23 | 70:34.27 | 1:55.74 | 317577 | 326275
24 | 72:30.26 | 2:32.10 | 326276 | 337685
25 | 75:02.36 | 1:28.37 | 337686 | 344322
26 | 76:30.73 | 0:47.29 | 344323 | 347876
27 | 77:18.27 | 0:28.12 | 347877 | 349988
28 | 77:46.39 | 1:07.69 | 349989 | 355082
29 | 78:54.33 | 1:16.20 | 355083 | 360802
30 | 80:10.53 | 0:52.21 | 360803 | 364723
31 | 81:02.74 | 1:35.20 | 364724 | 371868
32 | 82:38.19 | 0:59.16 | 371869 | 376309
33 | 83:37.35 | 1:19.24 | 376310 | 382258
34 | 84:56.59 | 0:55.17 | 382259 | 386400
35 | 85:52.01 | 1:10.22 | 386401 | 391672
36 | 87:02.23 | 0:58.54 | 391673 | 396076
37 | 88:01.02 | 1:39.17 | 396077 | 403518

Track 1

Filename C:\desk\01 – Wahre Liebe.wav

Pre-gap length 0:00:02.00

Peak level 99.8 %
Track quality 99.6 %
Test CRC 28A88B80
Copy CRC 28A88B80
Accurately ripped (confidence 60) [4BD6F19C]
Copy OK

Track 2

Filename C:\desk\02 – Punkrockgirl.wav

Pre-gap length 0:00:03.72

Peak level 99.8 %
Track quality 100.0 %
Test CRC 8E230DAC
Copy CRC 8E230DAC
Accurately ripped (confidence 59) [2F7616C5]
Copy OK

Track 3

Filename C:\desk\03 – Stick It Out-What’s The Ugliest Part Of Your Body.wav

Pre-gap length 0:00:01.74

Peak level 99.8 %
Track quality 99.9 %
Test CRC 163FCC60
Copy CRC 163FCC60
Accurately ripped (confidence 59) [FC17F74D]
Copy OK

Track 4

Filename C:\desk\04 – Regierung.wav

Pre-gap length 0:00:02.97

Peak level 99.8 %
Track quality 100.0 %
Test CRC 320E0AB9
Copy CRC 320E0AB9
Accurately ripped (confidence 60) [BB4683E6]
Copy OK

Track 5

Filename C:\desk\05 – Sex Me, Baby.wav

Pre-gap length 0:00:03.72

Peak level 99.8 %
Track quality 100.0 %
Test CRC 05FA83D6
Copy CRC 05FA83D6
Accurately ripped (confidence 60) [FEE51127]
Copy OK

Track 6

Filename C:\desk\06 – Warrumska.wav

Pre-gap length 0:00:03.72

Peak level 99.8 %
Track quality 100.0 %
Test CRC 14EF2B8E
Copy CRC 14EF2B8E
Accurately ripped (confidence 59) [8E5335D3]
Copy OK

Track 7

Filename C:\desk\07 – Saufen.wav

Pre-gap length 0:00:03.72

Peak level 99.8 %
Track quality 100.0 %
Test CRC B9D45B0E
Copy CRC B9D45B0E
Accurately ripped (confidence 59) [BB4F9978]
Copy OK

Track 8

Filename C:\desk\08 – Ein Lächeln (für jeden Tag deines Lebens).wav

Pre-gap length 0:00:03.72

Peak level 99.8 %
Track quality 100.0 %
Test CRC F4DD4BE4
Copy CRC F4DD4BE4
Accurately ripped (confidence 59) [94F4A4B2]
Copy OK

Track 9

Filename C:\desk\09 – Wunderbare Welt des Farin U..wav

Pre-gap length 0:00:03.72

Peak level 99.8 %
Track quality 99.9 %
Test CRC 5015EF7B
Copy CRC 5015EF7B
Accurately ripped (confidence 61) [861C786E]
Copy OK

Track 10

Filename C:\desk\10 – Rod Army.wav

Pre-gap length 0:00:03.72

Peak level 99.8 %
Track quality 100.0 %
Test CRC 29A66188
Copy CRC 29A66188
Accurately ripped (confidence 58) [18275BED]
Copy OK

Track 11

Filename C:\desk\11 – Ein Lied über Zensur.wav

Pre-gap length 0:00:03.72

Peak level 99.8 %
Track quality 100.0 %
Test CRC A4697641
Copy CRC A4697641
Accurately ripped (confidence 60) [7987CA3E]
Copy OK

Track 12

Filename C:\desk\12 – Schlimm.wav

Pre-gap length 0:00:03.72

Peak level 99.8 %
Track quality 100.0 %
Test CRC 2D68C6D7
Copy CRC 2D68C6D7
Accurately ripped (confidence 61) [5A85DBE2]
Copy OK

Track 13

Filename C:\desk\13 – Danke für jeden guten Morgen.wav

Pre-gap length 0:00:03.72

Peak level 99.8 %
Track quality 100.0 %
Test CRC 78733F44
Copy CRC 78733F44
Accurately ripped (confidence 60) [A69BCA12]
Copy OK

Track 14

Filename C:\desk\14 – Punk ist ….wav

Pre-gap length 0:00:03.72

Peak level 99.8 %
Track quality 99.9 %
Test CRC 218FE5F1
Copy CRC 218FE5F1
Accurately ripped (confidence 60) [056DBE9F]
Copy OK

Track 15

Filename C:\desk\15 – Backpfeifengesicht.wav

Pre-gap length 0:00:03.72

Peak level 90.0 %
Track quality 100.0 %
Test CRC 84B4B23E
Copy CRC 84B4B23E
Accurately ripped (confidence 60) [C3E63BE4]
Copy OK

Track 16

Filename C:\desk\16 – Alles für dich.wav

Pre-gap length 0:00:03.72

Peak level 99.8 %
Track quality 99.9 %
Test CRC 52F410DE
Copy CRC 52F410DE
Accurately ripped (confidence 60) [1E71D922]
Copy OK

Track 17

Filename C:\desk\17 – Die Instrumente des Orchesters.wav

Pre-gap length 0:00:03.72

Peak level 99.8 %
Track quality 100.0 %
Test CRC 9422E9E5
Copy CRC 9422E9E5
Accurately ripped (confidence 60) [E395C9F2]
Copy OK

Track 18

Filename C:\desk\18 – Kpt. Blaubär.wav

Pre-gap length 0:00:03.72

Peak level 99.8 %
Track quality 100.0 %
Test CRC 30221CAF
Copy CRC 30221CAF
Accurately ripped (confidence 60) [67E80AC2]
Copy OK

Track 19

Filename C:\desk\19 – Rettet die Wale.wav

Pre-gap length 0:00:03.72

Peak level 99.8 %
Track quality 100.0 %
Test CRC F8F0B6A2
Copy CRC F8F0B6A2
Accurately ripped (confidence 61) [1DBBB8A6]
Copy OK

Track 20

Filename C:\desk\20 – Die Welt ist schlecht.wav

Pre-gap length 0:00:03.72

Peak level 99.8 %
Track quality 100.0 %
Test CRC BE66821C
Copy CRC BE66821C
Accurately ripped (confidence 60) [B8067BBA]
Copy OK

Track 21

Filename C:\desk\21 – Kontovollmacht ….wav

Pre-gap length 0:00:03.73

Peak level 99.8 %
Track quality 100.0 %
Test CRC 54AB0D5E
Copy CRC 54AB0D5E
Accurately ripped (confidence 59) [B108CA04]
Copy OK

Track 22

Filename C:\desk\22 – Aus dem Tagebuch eines Amokläufers.wav

Pre-gap length 0:00:04.73

Peak level 97.3 %
Track quality 100.0 %
Test CRC 1D2944E9
Copy CRC 1D2944E9
Accurately ripped (confidence 61) [75C19224]
Copy OK

Track 23

Filename C:\desk\23 – Biergourmet.wav

Pre-gap length 0:00:04.65

Peak level 99.8 %
Track quality 100.0 %
Test CRC CEA2E1AE
Copy CRC CEA2E1AE
Accurately ripped (confidence 61) [0A9743A6]
Copy OK

Track 24

Filename C:\desk\24 – Frank’n’stein.wav

Pre-gap length 0:00:04.66

Peak level 99.8 %
Track quality 100.0 %
Test CRC 3ADC48E8
Copy CRC 3ADC48E8
Accurately ripped (confidence 60) [C058D206]
Copy OK

Track 25

Filename C:\desk\25 – Zusamm’fassung (Teil 1).wav

Pre-gap length 0:00:04.86

Peak level 99.8 %
Track quality 100.0 %
Test CRC 85891D80
Copy CRC 85891D80
Accurately ripped (confidence 58) [0E42B468]
Copy OK

Track 26

Filename C:\desk\26 – Zusamm’fassung (Teil 2).wav

Pre-gap length 0:00:03.72

Peak level 99.8 %
Track quality 100.0 %
Test CRC C93704F1
Copy CRC C93704F1
Accurately ripped (confidence 57) [09424A9B]
Copy OK

Track 27

Filename C:\desk\27 – Zusamm’fassung (Teil 3).wav

Pre-gap length 0:00:03.72

Peak level 99.8 %
Track quality 100.0 %
Test CRC CFED7B56
Copy CRC CFED7B56
Accurately ripped (confidence 57) [D18F43DF]
Copy OK

Track 28

Filename C:\desk\28 – Zusamm’fassung (Teil 4).wav

Pre-gap length 0:00:03.72

Peak level 99.8 %
Track quality 100.0 %
Test CRC B66891B4
Copy CRC B66891B4
Accurately ripped (confidence 57) [CA768355]
Copy OK

Track 29

Filename C:\desk\29 – Zusamm’fassung (Teil 5).wav

Pre-gap length 0:00:03.72

Peak level 99.8 %
Track quality 100.0 %
Test CRC C4B770C4
Copy CRC C4B770C4
Accurately ripped (confidence 57) [ACAA792D]
Copy OK

Track 30

Filename C:\desk\30 – Zusamm’fassung (Teil 6).wav

Pre-gap length 0:00:03.72

Peak level 99.2 %
Track quality 100.0 %
Test CRC 561049D2
Copy CRC 561049D2
Accurately ripped (confidence 57) [9CB386F9]
Copy OK

Track 31

Filename C:\desk\31 – Zusamm’fassung (Teil 7).wav

Pre-gap length 0:00:03.72

Peak level 99.8 %
Track quality 100.0 %
Test CRC 5F653AE7
Copy CRC 5F653AE7
Accurately ripped (confidence 57) [89F60794]
Copy OK

Track 32

Filename C:\desk\32 – Zusamm’fassung (Teil 8).wav

Pre-gap length 0:00:03.72

Peak level 99.8 %
Track quality 100.0 %
Test CRC 3A53743B
Copy CRC 3A53743B
Accurately ripped (confidence 57) [6123155D]
Copy OK

Track 33

Filename C:\desk\33 – Zusamm’fassung (Teil 9).wav

Pre-gap length 0:00:03.72

Peak level 99.8 %
Track quality 100.0 %
Test CRC 0227B5EC
Copy CRC 0227B5EC
Accurately ripped (confidence 56) [71F1FA22]
Copy OK

Track 34

Filename C:\desk\34 – Zusamm’fassung (Teil 10).wav

Pre-gap length 0:00:03.72

Peak level 99.8 %
Track quality 100.0 %
Test CRC 24D24905
Copy CRC 24D24905
Accurately ripped (confidence 56) [6DE22AF2]
Copy OK

Track 35

Filename C:\desk\35 – Zusamm’fassung (Teil 11).wav

Pre-gap length 0:00:03.72

Peak level 93.0 %
Track quality 100.0 %
Test CRC 16D90EEB
Copy CRC 16D90EEB
Accurately ripped (confidence 56) [554DC986]
Copy OK

Track 36

Filename C:\desk\36 – Zusamm’fassung (Teil 12).wav

Pre-gap length 0:00:03.72

Peak level 99.8 %
Track quality 100.0 %
Test CRC 015F5552
Copy CRC 015F5552
Accurately ripped (confidence 56) [703679FC]
Copy OK

Track 37

Filename C:\desk\37 – Zusamm’fassung (Teil 13).wav

Pre-gap length 0:00:03.72

Peak level 99.8 %
Track quality 100.0 %
Test CRC DB874B96
Copy CRC DB874B96
Accurately ripped (confidence 55) [6AA252DE]
Copy OK

All tracks accurately ripped

No errors occurred

End of status report

REM GENRE “Punk Rock”
REM DATE 2006
REM DISCID A5150719
REM COMMENT “ExactAudioCopy v0.99pb3”
PERFORMER “Die Arzte”
TITLE “Bast Of (disc 1: Alle Singles seit 1993)”
FILE “01 – Schrei nach Liebe.flac” WAVE
TRACK 01 AUDIO
TITLE “Schrei nach Liebe”
PERFORMER “Die Arzte”
INDEX 01 00:00:00
FILE “02 – Mach die Augen zu.flac” WAVE
TRACK 02 AUDIO
TITLE “Mach die Augen zu”
PERFORMER “Die Arzte”
INDEX 01 00:00:00
FILE “03 – Friedenspanzer.flac” WAVE
TRACK 03 AUDIO
TITLE “Friedenspanzer”
PERFORMER “Die Arzte”
INDEX 01 00:00:00
FILE “04 – Quark.flac” WAVE
TRACK 04 AUDIO
TITLE “Quark”
PERFORMER “Die Arzte”
INDEX 01 00:00:00
FILE “05 – Kopfuber in die Holle.flac” WAVE
TRACK 05 AUDIO
TITLE “Kopfuber in die Holle”
PERFORMER “Die Arzte”
INDEX 01 00:00:00
FILE “06 – Schunder-Song.flac” WAVE
TRACK 06 AUDIO
TITLE “Schunder-Song”
PERFORMER “Die Arzte”
INDEX 01 00:00:00
FILE “07 – Hurra.flac” WAVE
TRACK 07 AUDIO
TITLE “Hurra”
PERFORMER “Die Arzte”
INDEX 01 00:00:00
FILE “08 – 3-Tage-Bart.flac” WAVE
TRACK 08 AUDIO
TITLE “3-Tage-Bart”
PERFORMER “Die Arzte”
INDEX 01 00:00:00
FILE “09 – Mein Baby war beim Frisor.flac” WAVE
TRACK 09 AUDIO
TITLE “Mein Baby war beim Frisor”
PERFORMER “Die Arzte”
INDEX 01 00:00:00
FILE “10 – Manner sind Schweine.flac” WAVE
TRACK 10 AUDIO
TITLE “Manner sind Schweine”
PERFORMER “Die Arzte”
INDEX 01 00:00:00
FILE “11 – Goldenes Handwerk.flac” WAVE
TRACK 11 AUDIO
TITLE “Goldenes Handwerk”
PERFORMER “Die Arzte”
INDEX 01 00:00:00
FILE “12 – 1-2 Lovesong.flac” WAVE
TRACK 12 AUDIO
TITLE “1\2 Lovesong”
PERFORMER “Die Arzte”
INDEX 01 00:00:00
FILE “13 – Rebell.flac” WAVE
TRACK 13 AUDIO
TITLE “Rebell”
PERFORMER “Die Arzte”
INDEX 01 00:00:00
FILE “14 – Elke.flac” WAVE
TRACK 14 AUDIO
TITLE “Elke”
PERFORMER “Die Arzte”
INDEX 01 00:00:00
FILE “15 – Wie es geht.flac” WAVE
TRACK 15 AUDIO
TITLE “Wie es geht”
PERFORMER “Die Arzte”
INDEX 01 00:00:00
FILE “16 – Manchmal haben Frauen ….flac” WAVE
TRACK 16 AUDIO
TITLE “Manchmal haben Frauen …”
PERFORMER “Die Arzte”
INDEX 01 00:00:00
FILE “17 – Yoko Ono.flac” WAVE
TRACK 17 AUDIO
TITLE “Yoko Ono”
PERFORMER “Die Arzte”
INDEX 01 00:00:00
FILE “18 – Rock’n’Roll-Ubermensch.flac” WAVE
TRACK 18 AUDIO
TITLE “Rock’n’Roll-Ubermensch”
PERFORMER “Die Arzte”
INDEX 01 00:00:00
FILE “19 – Komm zuruck.flac” WAVE
TRACK 19 AUDIO
TITLE “Komm zuruck”
PERFORMER “Die Arzte”
INDEX 01 00:00:00
FILE “20 – Die Banane.flac” WAVE
TRACK 20 AUDIO
TITLE “Die Banane”
PERFORMER “Die Arzte”
INDEX 01 00:00:00
FILE “21 – Unrockbar.flac” WAVE
TRACK 21 AUDIO
TITLE “Unrockbar”
PERFORMER “Die Arzte”
INDEX 01 00:00:00
FILE “22 – Dinge von denen.flac” WAVE
TRACK 22 AUDIO
TITLE “Dinge von denen”
PERFORMER “Die Arzte”
INDEX 01 00:00:00
FILE “23 – Nichts in der Welt.flac” WAVE
TRACK 23 AUDIO
TITLE “Nichts in der Welt”
PERFORMER “Die Arzte”
INDEX 01 00:00:00
FILE “24 – Deine Schuld.flac” WAVE
TRACK 24 AUDIO
TITLE “Deine Schuld”
PERFORMER “Die Arzte”
INDEX 01 00:00:00
FILE “25 – Die klugsten Manner der Welt.flac” WAVE
TRACK 25 AUDIO
TITLE “Die klugsten Manner der Welt”
PERFORMER “Die Arzte”
INDEX 01 00:00:00

REM ACCURATERIPID 008a6083-0dad17ef-36150425
REM GENRE “Punk Rock”
REM DATE 2006
REM DISCID 36150425
REM COMMENT “ExactAudioCopy v0.99pb3”
PERFORMER “Die Arzte”
TITLE “Bast Of (disc 2: B-Seiten)”
FILE “01 – Wahre Liebe.flac” WAVE
TRACK 01 AUDIO
TITLE “Wahre Liebe”
PERFORMER “Die Arzte”
INDEX 01 00:00:00
TRACK 02 AUDIO
TITLE “Punkrockgirl”
PERFORMER “Die Arzte”
INDEX 00 03:09:39
FILE “02 – Punkrockgirl.flac” WAVE
INDEX 01 00:00:00
TRACK 03 AUDIO
TITLE “Stick It Out\What’s The Ugliest Part Of Your Body”
PERFORMER “Die Arzte”
INDEX 00 01:49:19
FILE “03 – Stick It Out-What’s The Ugliest Part Of Your Body.flac” WAVE
INDEX 01 00:00:00
TRACK 04 AUDIO
TITLE “Regierung”
PERFORMER “Die Arzte”
INDEX 00 03:06:14
FILE “04 – Regierung.flac” WAVE
INDEX 01 00:00:00
TRACK 05 AUDIO
TITLE “Sex Me, Baby”
PERFORMER “Die Arzte”
INDEX 00 02:28:20
FILE “05 – Sex Me, Baby.flac” WAVE
INDEX 01 00:00:00
TRACK 06 AUDIO
TITLE “Warrumska”
PERFORMER “Die Arzte”
INDEX 00 02:49:11
FILE “06 – Warrumska.flac” WAVE
INDEX 01 00:00:00
TRACK 07 AUDIO
TITLE “Saufen”
PERFORMER “Die Arzte”
INDEX 00 03:47:16
FILE “07 – Saufen.flac” WAVE
INDEX 01 00:00:00
TRACK 08 AUDIO
TITLE “Ein Lacheln (fur jeden Tag deines Lebens)”
PERFORMER “Die Arzte”
INDEX 00 03:44:43
FILE “08 – Ein Lacheln (fur jeden Tag deines Lebens).flac” WAVE
INDEX 01 00:00:00
TRACK 09 AUDIO
TITLE “Wunderbare Welt des Farin U.”
PERFORMER “Die Arzte”
INDEX 00 04:18:31
FILE “09 – Wunderbare Welt des Farin U..flac” WAVE
INDEX 01 00:00:00
TRACK 10 AUDIO
TITLE “Rod Army”
PERFORMER “Die Arzte”
INDEX 00 02:46:21
FILE “10 – Rod Army.flac” WAVE
INDEX 01 00:00:00
TRACK 11 AUDIO
TITLE “Ein Lied uber Zensur”
PERFORMER “Die Arzte”
INDEX 00 02:46:66
FILE “11 – Ein Lied uber Zensur.flac” WAVE
INDEX 01 00:00:00
TRACK 12 AUDIO
TITLE “Schlimm”
PERFORMER “Die Arzte”
INDEX 00 03:16:66
FILE “12 – Schlimm.flac” WAVE
INDEX 01 00:00:00
TRACK 13 AUDIO
TITLE “Danke fur jeden guten Morgen”
PERFORMER “Die Arzte”
INDEX 00 03:30:65
FILE “13 – Danke fur jeden guten Morgen.flac” WAVE
INDEX 01 00:00:00
TRACK 14 AUDIO
TITLE “Punk ist …”
PERFORMER “Die Arzte”
INDEX 00 02:39:62
FILE “14 – Punk ist ….flac” WAVE
INDEX 01 00:00:00
TRACK 15 AUDIO
TITLE “Backpfeifengesicht”
PERFORMER “Die Arzte”
INDEX 00 03:19:20
FILE “15 – Backpfeifengesicht.flac” WAVE
INDEX 01 00:00:00
TRACK 16 AUDIO
TITLE “Alles fur dich”
PERFORMER “Die Arzte”
INDEX 00 02:21:01
FILE “16 – Alles fur dich.flac” WAVE
INDEX 01 00:00:00
TRACK 17 AUDIO
TITLE “Die Instrumente des Orchesters”
PERFORMER “Die Arzte”
INDEX 00 04:06:73
FILE “17 – Die Instrumente des Orchesters.flac” WAVE
INDEX 01 00:00:00
TRACK 18 AUDIO
TITLE “Kpt. Blaubar”
PERFORMER “Die Arzte”
INDEX 00 02:34:03
FILE “18 – Kpt. Blaubar.flac” WAVE
INDEX 01 00:00:00
TRACK 19 AUDIO
TITLE “Rettet die Wale”
PERFORMER “Die Arzte”
INDEX 00 04:11:62
FILE “19 – Rettet die Wale.flac” WAVE
INDEX 01 00:00:00
TRACK 20 AUDIO
TITLE “Die Welt ist schlecht”
PERFORMER “Die Arzte”
INDEX 00 01:46:03
FILE “20 – Die Welt ist schlecht.flac” WAVE
INDEX 01 00:00:00
TRACK 21 AUDIO
TITLE “Kontovollmacht …”
PERFORMER “Die Arzte”
INDEX 00 03:35:70
FILE “21 – Kontovollmacht ….flac” WAVE
INDEX 01 00:00:00
TRACK 22 AUDIO
TITLE “Aus dem Tagebuch eines Amoklaufers”
PERFORMER “Die Arzte”
INDEX 00 04:33:38
FILE “22 – Aus dem Tagebuch eines Amoklaufers.flac” WAVE
INDEX 01 00:00:00
TRACK 23 AUDIO
TITLE “Biergourmet”
PERFORMER “Die Arzte”
INDEX 00 02:31:28
FILE “23 – Biergourmet.flac” WAVE
INDEX 01 00:00:00
TRACK 24 AUDIO
TITLE “Frank’n’stein”
PERFORMER “Die Arzte”
INDEX 00 01:51:24
FILE “24 – Frank’n’stein.flac” WAVE
INDEX 01 00:00:00
TRACK 25 AUDIO
TITLE “Zusamm’fassung (Teil 1)”
PERFORMER “Die Arzte”
INDEX 00 02:27:20
FILE “25 – Zusamm’fassung (Teil 1).flac” WAVE
INDEX 01 00:00:00
TRACK 26 AUDIO
TITLE “Zusamm’fassung (Teil 2)”
PERFORMER “Die Arzte”
INDEX 00 01:24:58
FILE “26 – Zusamm’fassung (Teil 2).flac” WAVE
INDEX 01 00:00:00
TRACK 27 AUDIO
TITLE “Zusamm’fassung (Teil 3)”
PERFORMER “Die Arzte”
INDEX 00 00:43:50
FILE “27 – Zusamm’fassung (Teil 3).flac” WAVE
INDEX 01 00:00:00
TRACK 28 AUDIO
TITLE “Zusamm’fassung (Teil 4)”
PERFORMER “Die Arzte”
INDEX 00 00:24:33
FILE “28 – Zusamm’fassung (Teil 4).flac” WAVE
INDEX 01 00:00:00
TRACK 29 AUDIO
TITLE “Zusamm’fassung (Teil 5)”
PERFORMER “Die Arzte”
INDEX 00 01:04:15
FILE “29 – Zusamm’fassung (Teil 5).flac” WAVE
INDEX 01 00:00:00
TRACK 30 AUDIO
TITLE “Zusamm’fassung (Teil 6)”
PERFORMER “Die Arzte”
INDEX 00 01:12:41
FILE “30 – Zusamm’fassung (Teil 6).flac” WAVE
INDEX 01 00:00:00
TRACK 31 AUDIO
TITLE “Zusamm’fassung (Teil 7)”
PERFORMER “Die Arzte”
INDEX 00 00:48:42
FILE “31 – Zusamm’fassung (Teil 7).flac” WAVE
INDEX 01 00:00:00
TRACK 32 AUDIO
TITLE “Zusamm’fassung (Teil 8)”
PERFORMER “Die Arzte”
INDEX 00 01:31:41
FILE “32 – Zusamm’fassung (Teil 8).flac” WAVE
INDEX 01 00:00:00
TRACK 33 AUDIO
TITLE “Zusamm’fassung (Teil 9)”
PERFORMER “Die Arzte”
INDEX 00 00:55:37
FILE “33 – Zusamm’fassung (Teil 9).flac” WAVE
INDEX 01 00:00:00
TRACK 34 AUDIO
TITLE “Zusamm’fassung (Teil 10)”
PERFORMER “Die Arzte”
INDEX 00 01:15:45
FILE “34 – Zusamm’fassung (Teil 10).flac” WAVE
INDEX 01 00:00:00
TRACK 35 AUDIO
TITLE “Zusamm’fassung (Teil 11)”
PERFORMER “Die Arzte”
INDEX 00 00:51:38
FILE “35 – Zusamm’fassung (Teil 11).flac” WAVE
INDEX 01 00:00:00
TRACK 36 AUDIO
TITLE “Zusamm’fassung (Teil 12)”
PERFORMER “Die Arzte”
INDEX 00 01:06:43
FILE “36 – Zusamm’fassung (Teil 12).flac” WAVE
INDEX 01 00:00:00
TRACK 37 AUDIO
TITLE “Zusamm’fassung (Teil 13)”
PERFORMER “Die Arzte”
INDEX 00 00:55:00
FILE “37 – Zusamm’fassung (Teil 13).flac” WAVE
INDEX 01 00:00:00

Leave a Reply

Your email address will not be published. Required fields are marked *

Enter the text from the image below
 

This site uses Akismet to reduce spam. Learn how your comment data is processed.