Die Ärzte – Auch




Artist: Die Arzte
Year: 2012
Genre: Rock
Notes: Discogs
Add. Notes:
Cover incl.: Yes
Encoder: FLAC
Bitrate: ~1000 kBit/s (44.1 kHz/16 Bit/s)
Log & Cue incl.: Yes
Size: 380,8 MB
Password: “slam” (without ” “)


All Downloads/Hosters are compatible

Download 1
KatFile.com
Turbobit.net
FileFactory.com
Rapidgator.net
Download 2
KatFile.com
Turbobit.net
FileFactory.com
Rapidgator.net

Tracklist:

1 Ist Das Noch Punkrock? 3:00
2 Bettmagnet 3:08
3 Sohn Der Leere 3:43
4 TCR 3:44
5 Das Darfst Du 3:21
6 Tamagotchi 3:07
7 M&F 4:16
8 Freundschaft Ist Kunst 3:23
9 Angekumpelt 2:35
10 Waldspaziergang Mit Folgen 3:27
11 Fiasko 2:45
12 Miststück 3:40
13 Das Finde Ich Gut 2:27
14 Cpt. Metal 4:36
15 Die Hard 2:21
16 zeiDverschwÄndung 3:00

EAC-Log, CUE-Sheed & NFO:

Click to open spoiler
Exact Audio Copy V1.0 beta 3 from 29. August 2011

EAC extraction logfile from 13. April 2012, 14:10

Die Ärzte / auch

Used drive : _NEC DVD_RW ND-2510A Adapter: 2 ID: 1

Read mode : Secure
Utilize accurate stream : Yes
Defeat audio cache : Yes
Make use of C2 pointers : No

Read offset correction : 48
Overread into Lead-In and Lead-Out : No
Fill up missing offset samples with silence : Yes
Delete leading and trailing silent blocks : No
Null samples used in CRC calculations : Yes
Used interface : Native Win32 interface for Win NT & 2000
Gap handling : Appended to previous track

Used output format : User Defined Encoder
Selected bitrate : 768 kBit/s
Quality : High
Add ID3 tag : No
Command line compressor : C:\Program Files (x86)\Exact Audio Copy\FLAC\FLAC.EXE
Additional command line options : -8 -V -T “ARTIST=%artist%” -T “TITLE=%title%” -T “ALBUM=%albumtitle%” -T “DATE=%year%” -T “TRACKNUMBER=%tracknr%” -T “GENRE=%genre%” -T “COMMENT=%comment%” -T “BAND=%albuminterpret%” -T “ALBUMARTIST=%albuminterpret%” -T “COMPOSER=%composer%” %haslyrics%–tag-from-file=LYRICS=”%lyricsfile%”%haslyrics% -T “DISCNUMBER=%cdnumber%” -T “TOTALDISCS=%totalcds%” -T “TOTALTRACKS=%numtracks%” %hascover%–picture=”%coverfile%”%hascover% %source% -o %dest%

TOC of the extracted CD

Track | Start | Length | Start sector | End sector
———————————————————
1 | 0:00.00 | 2:59.73 | 0 | 13497
2 | 2:59.73 | 3:07.68 | 13498 | 27590
3 | 6:07.66 | 3:42.59 | 27591 | 44299
4 | 9:50.50 | 3:44.09 | 44300 | 61108
5 | 13:34.59 | 3:20.40 | 61109 | 76148
6 | 16:55.24 | 3:06.45 | 76149 | 90143
7 | 20:01.69 | 4:16.09 | 90144 | 109352
8 | 24:18.03 | 3:22.42 | 109353 | 124544
9 | 27:40.45 | 2:34.45 | 124545 | 136139
10 | 30:15.15 | 3:27.03 | 136140 | 151667
11 | 33:42.18 | 2:44.59 | 151668 | 164026
12 | 36:27.02 | 3:39.67 | 164027 | 180518
13 | 40:06.69 | 2:27.24 | 180519 | 191567
14 | 42:34.18 | 4:36.31 | 191568 | 212298
15 | 47:10.49 | 2:20.33 | 212299 | 222831
16 | 49:31.07 | 2:59.58 | 222832 | 236314

Track 1

Filename C:\music\Die Ärzte – 2012 auch\01 Die Ärzte – Ist das noch Punkrock.wav

Pre-gap length 0:00:02.00

Peak level 87.4 %
Extraction speed 3.5 X
Track quality 100.0 %
Test CRC 5EAE8BE3
Copy CRC 5EAE8BE3
Track not present in AccurateRip database
Copy OK

Track 2

Filename C:\music\Die Ärzte – 2012 auch\02 Die Ärzte – Bettmagnet.wav

Pre-gap length 0:00:00.43

Peak level 97.7 %
Extraction speed 3.1 X
Track quality 99.9 %
Test CRC C50B5135
Copy CRC C50B5135
Track not present in AccurateRip database
Copy OK

Track 3

Filename C:\music\Die Ärzte – 2012 auch\03 Die Ärzte – Sohn der Leere.wav

Peak level 97.7 %
Extraction speed 3.5 X
Track quality 99.9 %
Test CRC 2C2AC1AD
Copy CRC 2C2AC1AD
Track not present in AccurateRip database
Copy OK

Track 4

Filename C:\music\Die Ärzte – 2012 auch\04 Die Ärzte – TCR.wav

Pre-gap length 0:00:01.05

Peak level 97.7 %
Extraction speed 3.8 X
Track quality 99.9 %
Test CRC 8B28D3EB
Copy CRC 8B28D3EB
Track not present in AccurateRip database
Copy OK

Track 5

Filename C:\music\Die Ärzte – 2012 auch\05 Die Ärzte – Das darfst du.wav

Pre-gap length 0:00:01.13

Peak level 97.7 %
Extraction speed 3.8 X
Track quality 99.9 %
Test CRC CEE1238A
Copy CRC CEE1238A
Track not present in AccurateRip database
Copy OK

Track 6

Filename C:\music\Die Ärzte – 2012 auch\06 Die Ärzte – Tamagotchi.wav

Pre-gap length 0:00:00.57

Peak level 97.7 %
Extraction speed 4.9 X
Track quality 100.0 %
Test CRC D97D536A
Copy CRC D97D536A
Track not present in AccurateRip database
Copy OK

Track 7

Filename C:\music\Die Ärzte – 2012 auch\07 Die Ärzte – M&F.wav

Pre-gap length 0:00:01.06

Peak level 97.7 %
Extraction speed 5.5 X
Track quality 100.0 %
Test CRC 4EE14F99
Copy CRC 4EE14F99
Track not present in AccurateRip database
Copy OK

Track 8

Filename C:\music\Die Ärzte – 2012 auch\08 Die Ärzte – Freundschaft ist Kunst.wav

Pre-gap length 0:00:00.62

Peak level 97.7 %
Extraction speed 5.5 X
Track quality 100.0 %
Test CRC 784587EF
Copy CRC 784587EF
Track not present in AccurateRip database
Copy OK

Track 9

Filename C:\music\Die Ärzte – 2012 auch\09 Die Ärzte – Angekumpelt.wav

Peak level 97.7 %
Extraction speed 5.4 X
Track quality 100.0 %
Test CRC 10F857CF
Copy CRC 10F857CF
Track not present in AccurateRip database
Copy OK

Track 10

Filename C:\music\Die Ärzte – 2012 auch\10 Die Ärzte – Waldspaziergang mit Folgen.wav

Pre-gap length 0:00:01.73

Peak level 97.7 %
Extraction speed 5.9 X
Track quality 100.0 %
Test CRC 23C309C2
Copy CRC 23C309C2
Track not present in AccurateRip database
Copy OK

Track 11

Filename C:\music\Die Ärzte – 2012 auch\11 Die Ärzte – Fiasko.wav

Peak level 97.7 %
Extraction speed 5.9 X
Track quality 100.0 %
Test CRC 93766443
Copy CRC 93766443
Track not present in AccurateRip database
Copy OK

Track 12

Filename C:\music\Die Ärzte – 2012 auch\12 Die Ärzte – Miststück.wav

Pre-gap length 0:00:00.48

Peak level 97.7 %
Extraction speed 6.3 X
Track quality 100.0 %
Test CRC 243A2BA9
Copy CRC 243A2BA9
Track not present in AccurateRip database
Copy OK

Track 13

Filename C:\music\Die Ärzte – 2012 auch\13 Die Ärzte – Das finde ich gut.wav

Pre-gap length 0:00:01.01

Peak level 97.7 %
Extraction speed 6.0 X
Track quality 100.0 %
Test CRC 52A15D62
Copy CRC 52A15D62
Track not present in AccurateRip database
Copy OK

Track 14

Filename C:\music\Die Ärzte – 2012 auch\14 Die Ärzte – Cpt. Metal.wav

Peak level 97.7 %
Extraction speed 6.9 X
Track quality 100.0 %
Test CRC D6F56179
Copy CRC D6F56179
Track not present in AccurateRip database
Copy OK

Track 15

Filename C:\music\Die Ärzte – 2012 auch\15 Die Ärzte – Die Hard.wav

Peak level 97.7 %
Extraction speed 4.7 X
Track quality 99.9 %
Test CRC C539FBD3
Copy CRC C539FBD3
Track not present in AccurateRip database
Copy OK

Track 16

Filename C:\music\Die Ärzte – 2012 auch\16 Die Ärzte – zeiDverschwÄndung.wav

Pre-gap length 0:00:00.27

Peak level 97.7 %
Extraction speed 6.7 X
Track quality 100.0 %
Test CRC 36A07961
Copy CRC 36A07961
Track not present in AccurateRip database
Copy OK

None of the tracks are present in the AccurateRip database

No errors occurred

End of status report

—- CUETools DB Plugin V2.1.3

[CTDB TOCID: l.QV98wryKVosTHZVPlQ3dB8mcM-] found, Submit result: already submitted
[44959629] (6/6) Accurately ripped

==== Log checksum 7EA572B88675D67F3C21D42504FD423259214015EDC54688722856315612B502 ====

REM DISCID D70C4E10
REM COMMENT “ExactAudioCopy v1.0b3”
CATALOG 4019593006579
PERFORMER “Die Ärzte”
TITLE “auch”
FILE “01. Die Ärzte – Ist das noch Punkrock.flac” WAVE
TRACK 01 AUDIO
TITLE “Ist das noch Punkrock?”
PERFORMER “Die Ärzte”
ISRC DEUM71200089
FLAGS DCP
INDEX 01 00:00:00
TRACK 02 AUDIO
TITLE “Bettmagnet”
PERFORMER “Die Ärzte”
ISRC DEUM71200090
FLAGS DCP
INDEX 00 02:59:30
FILE “02. Die Ärzte – Bettmagnet.flac” WAVE
INDEX 01 00:00:00
FILE “03. Die Ärzte – Sohn der Leere.flac” WAVE
TRACK 03 AUDIO
TITLE “Sohn der Leere”
PERFORMER “Die Ärzte”
ISRC DEUM71200091
FLAGS DCP
INDEX 01 00:00:00
TRACK 04 AUDIO
TITLE “TCR”
PERFORMER “Die Ärzte”
ISRC DEUM71200092
FLAGS DCP
INDEX 00 03:41:54
FILE “04. Die Ärzte – TCR.flac” WAVE
INDEX 01 00:00:00
TRACK 05 AUDIO
TITLE “Das darfst du”
PERFORMER “Die Ärzte”
ISRC DEUM71200093
FLAGS DCP
INDEX 00 03:42:71
FILE “05. Die Ärzte – Das darfst du.flac” WAVE
INDEX 01 00:00:00
TRACK 06 AUDIO
TITLE “Tamagotchi”
PERFORMER “Die Ärzte”
ISRC DEUM71200094
FLAGS DCP
INDEX 00 03:19:58
FILE “06. Die Ärzte – Tamagotchi.flac” WAVE
INDEX 01 00:00:00
TRACK 07 AUDIO
TITLE “M&F”
PERFORMER “Die Ärzte”
ISRC DEUM71200095
FLAGS DCP
INDEX 00 03:05:39
FILE “07. Die Ärzte – M&F.flac” WAVE
INDEX 01 00:00:00
TRACK 08 AUDIO
TITLE “Freundschaft ist Kunst”
PERFORMER “Die Ärzte”
ISRC DEUM71200096
FLAGS DCP
INDEX 00 04:15:22
FILE “08. Die Ärzte – Freundschaft ist Kunst.flac” WAVE
INDEX 01 00:00:00
FILE “09. Die Ärzte – Angekumpelt.flac” WAVE
TRACK 09 AUDIO
TITLE “Angekumpelt”
PERFORMER “Die Ärzte”
ISRC DEUM71200097
FLAGS DCP
INDEX 01 00:00:00
TRACK 10 AUDIO
TITLE “Waldspaziergang mit Folgen”
PERFORMER “Die Ärzte”
ISRC DEUM71200098
FLAGS DCP
INDEX 00 02:32:47
FILE “10. Die Ärzte – Waldspaziergang mit Folgen.flac” WAVE
INDEX 01 00:00:00
FILE “11. Die Ärzte – Fiasko.flac” WAVE
TRACK 11 AUDIO
TITLE “Fiasko”
PERFORMER “Die Ärzte”
ISRC DEUM71200099
FLAGS DCP
INDEX 01 00:00:00
TRACK 12 AUDIO
TITLE “Miststück”
PERFORMER “Die Ärzte”
ISRC DEUM71200100
FLAGS DCP
INDEX 00 02:44:11
FILE “12. Die Ärzte – Miststück.flac” WAVE
INDEX 01 00:00:00
TRACK 13 AUDIO
TITLE “Das finde ich gut”
PERFORMER “Die Ärzte”
ISRC DEUM71200101
FLAGS DCP
INDEX 00 03:38:66
FILE “13. Die Ärzte – Das finde ich gut.flac” WAVE
INDEX 01 00:00:00
FILE “14. Die Ärzte – Cpt. Metal.flac” WAVE
TRACK 14 AUDIO
TITLE “Cpt. Metal”
PERFORMER “Die Ärzte”
ISRC DEUM71200102
FLAGS DCP
INDEX 01 00:00:00
FILE “15. Die Ärzte – Die Hard.flac” WAVE
TRACK 15 AUDIO
TITLE “Die Hard”
PERFORMER “Die Ärzte”
ISRC DEUM71200103
FLAGS DCP
INDEX 01 00:00:00
TRACK 16 AUDIO
TITLE “zeiDverschwÄndung”
PERFORMER “Die Ärzte”
ISRC DEUM71200104
FLAGS DCP
INDEX 00 02:20:06
FILE “16. Die Ärzte – zeiDverschwÄndung.flac” WAVE
INDEX 01 00:00:00


Leave a Reply

Your email address will not be published. Required fields are marked *

This site uses Akismet to reduce spam. Learn how your comment data is processed.