Die Ärzte – 5, 6, 7, 8 – Bullenstaat!




No Cover available

Artist: Die Ärzte
Year: 2001
Genre: Punk
Notes: Discogs
Add. Notes:
Watch Songs on: YouTube
Cover incl.: Yes
Encoder: FLAC
Bitrate: ~1000 kBit/s (44.1 kHz/16 Bit/s)
Log & Cue incl.: Yes
Size: 274,7 MB
Password: “slam” (without ” “)


All Downloads/Hosters are compatible

Download 1
KatFile.com
Turbobit.net
Rapidgator.net
Share-online.biz
Download 2
KatFile.com
Turbobit.net
Rapidgator.net
Share-online.biz

Tracklist:

1 - Punkbabies - 0:41
2 - West Berlin - 0:44
3 - Mc Donalds - 0:20
4 - Bravopunks - 1:15
5 - A-Moll - 0:30
6 - Chile 3 - 0:41
7 - Elektrobier - 1:20
8 - Deutschland Verdrecke - 0:33
9 - That's Punkrock - 1:01
10 - Hass Auf Bier - 0:40
11 - Bullenschwein - 0:06
12 - Cops Underwater - 1:32
13 - Ich Bin Ein Punk - 0:41
14 - Rockabilly War - 0:39
15 - Biergourmet - 0:37
16 - Widerstand - 0:42
17 - Killing Joke - 1:08
18 - Rache - 0:19
19 - Studentenmädchen - 1:03
20 - Geboren Zu Verlieren - 1:17
21 - Rockabilly Peace - 0:49
22 - Tränengas - 0:59
23 - 'Tschuldigung Bier - 1:21
24 - Knüppelbullendub - 1:41
25 - Ich Bin Glücklich - 1:15
Bonustracks
26 - 1 2XU - 1:18
27 - Ihr Helden - 1:25
28 - I Hate Hitler - 0:41
29 - Samen Im Darm - 4:02
30 - BGS - 1:03
31 - Kein Problem - 2:58
32 - Tittenfetischisten - 0:08
33 - Paul - 3:00
34 - So Froh - 0:23

EAC-Log, CUE-Sheed & NFO:

Click to open spoiler
Exact Audio Copy V0.99 prebeta 5 from 4. May 2009

EAC extraction logfile from 19. September 2010, 16:28

die Arzte / 5, 6, 7, 8 – Bullenstaat!

Used drive : HL-DT-STDVDRAM GSA-4040B Adapter: 0 ID: 1

Read mode : Secure
Utilize accurate stream : Yes
Defeat audio cache : Yes
Make use of C2 pointers : No

Read offset correction : 667
Overread into Lead-In and Lead-Out : No
Fill up missing offset samples with silence : Yes
Delete leading and trailing silent blocks : No
Null samples used in CRC calculations : Yes
Used interface : Native Win32 interface for Win NT & 2000
Gap handling : Appended to previous track

Used output format : User Defined Encoder
Selected bitrate : 1024 kBit/s
Quality : High
Add ID3 tag : No
Command line compressor : C:\Program Files\FLAC\flac.exe
Additional command line options : -8 -V -T “ARTIST=%a” -T “TITLE=%t” -T “ALBUM=%g” -T “DATE=%y” -T “TRACKNUMBER=%n” -T “GENRE=%m” -T “COMMENT=EAC FLAC -8” %s

TOC of the extracted CD

Track | Start | Length | Start sector | End sector
———————————————————
1 | 0:00.00 | 0:41.46 | 0 | 3120
2 | 0:41.46 | 0:45.56 | 3121 | 6551
3 | 1:27.27 | 0:20.12 | 6552 | 8063
4 | 1:47.39 | 1:15.74 | 8064 | 13762
5 | 3:03.38 | 0:31.21 | 13763 | 16108
6 | 3:34.59 | 0:42.36 | 16109 | 19294
7 | 4:17.20 | 1:19.69 | 19295 | 25288
8 | 5:37.14 | 0:33.15 | 25289 | 27778
9 | 6:10.29 | 1:01.23 | 27779 | 32376
10 | 7:11.52 | 0:41.25 | 32377 | 35476
11 | 7:53.02 | 0:05.58 | 35477 | 35909
12 | 7:58.60 | 1:32.33 | 35910 | 42842
13 | 9:31.18 | 0:41.15 | 42843 | 45932
14 | 10:12.33 | 0:39.31 | 45933 | 48888
15 | 10:51.64 | 0:38.11 | 48889 | 51749
16 | 11:30.00 | 0:43.64 | 51750 | 55038
17 | 12:13.64 | 1:08.29 | 55039 | 60167
18 | 13:22.18 | 0:21.18 | 60168 | 61760
19 | 13:43.36 | 1:04.50 | 61761 | 66610
20 | 14:48.11 | 1:17.33 | 66611 | 72418
21 | 16:05.44 | 0:49.17 | 72419 | 76110
22 | 16:54.61 | 0:59.54 | 76111 | 80589
23 | 17:54.40 | 1:21.19 | 80590 | 86683
24 | 19:15.59 | 1:41.13 | 86684 | 94271
25 | 20:56.72 | 1:24.58 | 94272 | 100629
26 | 22:21.55 | 1:19.36 | 100630 | 106590
27 | 23:41.16 | 1:25.40 | 106591 | 113005
28 | 25:06.56 | 0:41.04 | 113006 | 116084
29 | 25:47.60 | 4:01.66 | 116085 | 134225
30 | 29:49.51 | 1:03.05 | 134226 | 138955
31 | 30:52.56 | 2:58.32 | 138956 | 152337
32 | 33:51.13 | 0:10.16 | 152338 | 153103
33 | 34:01.29 | 3:00.38 | 153104 | 166641
34 | 37:01.67 | 0:22.68 | 166642 | 168359

Track 1

Filename K:\My torrents\Die Aerzte – 2001 – 5, 6, 7, 8 – Bullenstaat!\01. die Arzte – Punkbabies.wav

Pre-gap length 0:00:02.00

Peak level 100.0 %
Track quality 100.0 %
Test CRC E4DCB2F9
Copy CRC E4DCB2F9
Accurately ripped (confidence 20) [D0A50D86]
Copy OK

Track 2

Filename K:\My torrents\Die Aerzte – 2001 – 5, 6, 7, 8 – Bullenstaat!\02. die Arzte – West Berlin.wav

Peak level 100.0 %
Track quality 100.0 %
Test CRC 0E7470AA
Copy CRC 0E7470AA
Accurately ripped (confidence 20) [D7A389E1]
Copy OK

Track 3

Filename K:\My torrents\Die Aerzte – 2001 – 5, 6, 7, 8 – Bullenstaat!\03. die Arzte – Mc Donalds.wav

Pre-gap length 0:00:01.21

Peak level 100.0 %
Track quality 100.0 %
Test CRC 8EEAB6A0
Copy CRC 8EEAB6A0
Accurately ripped (confidence 20) [627DF48E]
Copy OK

Track 4

Filename K:\My torrents\Die Aerzte – 2001 – 5, 6, 7, 8 – Bullenstaat!\04. die Arzte – Bravopunks.wav

Peak level 100.0 %
Track quality 100.0 %
Test CRC 978ACCC2
Copy CRC 978ACCC2
Accurately ripped (confidence 20) [C12C5181]
Copy OK

Track 5

Filename K:\My torrents\Die Aerzte – 2001 – 5, 6, 7, 8 – Bullenstaat!\05. die Arzte – A-moll.wav

Pre-gap length 0:00:01.32

Peak level 99.4 %
Track quality 100.0 %
Test CRC D7145196
Copy CRC D7145196
Accurately ripped (confidence 20) [8EEC55C5]
Copy OK

Track 6

Filename K:\My torrents\Die Aerzte – 2001 – 5, 6, 7, 8 – Bullenstaat!\06. die Arzte – Chile 3.wav

Pre-gap length 0:00:01.13

Peak level 100.0 %
Track quality 99.7 %
Test CRC F5565ABE
Copy CRC F5565ABE
Accurately ripped (confidence 20) [CED79922]
Copy OK

Track 7

Filename K:\My torrents\Die Aerzte – 2001 – 5, 6, 7, 8 – Bullenstaat!\07. die Arzte – Elektrobier.wav

Pre-gap length 0:00:01.68

Peak level 100.0 %
Track quality 100.0 %
Test CRC 6ECDD357
Copy CRC 6ECDD357
Accurately ripped (confidence 20) [4198304A]
Copy OK

Track 8

Filename K:\My torrents\Die Aerzte – 2001 – 5, 6, 7, 8 – Bullenstaat!\08. die Arzte – Deutschland verdrecke.wav

Peak level 100.0 %
Track quality 99.6 %
Test CRC 9F003E5F
Copy CRC 9F003E5F
Accurately ripped (confidence 20) [C3D2DBFF]
Copy OK

Track 9

Filename K:\My torrents\Die Aerzte – 2001 – 5, 6, 7, 8 – Bullenstaat!\09. die Arzte – That’s Punkrock.wav

Peak level 100.0 %
Track quality 100.0 %
Test CRC 45607354
Copy CRC 45607354
Accurately ripped (confidence 20) [08307818]
Copy OK

Track 10

Filename K:\My torrents\Die Aerzte – 2001 – 5, 6, 7, 8 – Bullenstaat!\10. die Arzte – Hass auf Bier.wav

Peak level 100.0 %
Track quality 100.0 %
Test CRC 3796C47F
Copy CRC 3796C47F
Accurately ripped (confidence 20) [F0D19A04]
Copy OK

Track 11

Filename K:\My torrents\Die Aerzte – 2001 – 5, 6, 7, 8 – Bullenstaat!\11. die Arzte – Bullenschwein.wav

Pre-gap length 0:00:01.45

Peak level 99.7 %
Track quality 100.0 %
Test CRC 96B12EAB
Copy CRC 96B12EAB
Track not present in AccurateRip database
Copy OK

Track 12

Filename K:\My torrents\Die Aerzte – 2001 – 5, 6, 7, 8 – Bullenstaat!\12. die Arzte – Cops Underwater.wav

Peak level 100.0 %
Track quality 100.0 %
Test CRC C5EB953C
Copy CRC C5EB953C
Accurately ripped (confidence 20) [93923694]
Copy OK

Track 13

Filename K:\My torrents\Die Aerzte – 2001 – 5, 6, 7, 8 – Bullenstaat!\13. die Arzte – Ich bin ein Punk.wav

Peak level 100.0 %
Track quality 99.7 %
Test CRC D5342F69
Copy CRC D5342F69
Accurately ripped (confidence 20) [59FE370A]
Copy OK

Track 14

Filename K:\My torrents\Die Aerzte – 2001 – 5, 6, 7, 8 – Bullenstaat!\14. die Arzte – Rockabilly War.wav

Peak level 100.0 %
Track quality 100.0 %
Test CRC 1D6D1740
Copy CRC 1D6D1740
Accurately ripped (confidence 20) [C1914A29]
Copy OK

Track 15

Filename K:\My torrents\Die Aerzte – 2001 – 5, 6, 7, 8 – Bullenstaat!\15. die Arzte – Biergourmet.wav

Peak level 100.0 %
Track quality 100.0 %
Test CRC 6FD79D6B
Copy CRC 6FD79D6B
Accurately ripped (confidence 20) [AE795CB8]
Copy OK

Track 16

Filename K:\My torrents\Die Aerzte – 2001 – 5, 6, 7, 8 – Bullenstaat!\16. die Arzte – Widerstand.wav

Pre-gap length 0:00:01.32

Peak level 100.0 %
Track quality 100.0 %
Test CRC 24B5CEEC
Copy CRC 24B5CEEC
Accurately ripped (confidence 20) [8E05236F]
Copy OK

Track 17

Filename K:\My torrents\Die Aerzte – 2001 – 5, 6, 7, 8 – Bullenstaat!\17. die Arzte – Killing Joke.wav

Pre-gap length 0:00:01.78

Peak level 100.0 %
Track quality 99.8 %
Test CRC DB2A59EF
Copy CRC DB2A59EF
Accurately ripped (confidence 20) [2FCF8A15]
Copy OK

Track 18

Filename K:\My torrents\Die Aerzte – 2001 – 5, 6, 7, 8 – Bullenstaat!\18. die Arzte – Rache.wav

Peak level 98.8 %
Track quality 99.4 %
Test CRC 9BB513AC
Copy CRC 9BB513AC
Accurately ripped (confidence 20) [801E76EE]
Copy OK

Track 19

Filename K:\My torrents\Die Aerzte – 2001 – 5, 6, 7, 8 – Bullenstaat!\19. die Arzte – Studentenmadchen.wav

Pre-gap length 0:00:01.86

Peak level 100.0 %
Track quality 100.0 %
Test CRC E5CB6316
Copy CRC E5CB6316
Accurately ripped (confidence 20) [DC2CB11E]
Copy OK

Track 20

Filename K:\My torrents\Die Aerzte – 2001 – 5, 6, 7, 8 – Bullenstaat!\20. die Arzte – Geboren zu verlieren.wav

Pre-gap length 0:00:01.08

Peak level 100.0 %
Track quality 100.0 %
Test CRC 02E10ACC
Copy CRC 02E10ACC
Accurately ripped (confidence 20) [77626E51]
Copy OK

Track 21

Filename K:\My torrents\Die Aerzte – 2001 – 5, 6, 7, 8 – Bullenstaat!\21. die Arzte – Rockabilly Peace.wav

Peak level 100.0 %
Track quality 100.0 %
Test CRC 370B9F84
Copy CRC 370B9F84
Accurately ripped (confidence 20) [4334C4A2]
Copy OK

Track 22

Filename K:\My torrents\Die Aerzte – 2001 – 5, 6, 7, 8 – Bullenstaat!\22. die Arzte – Tranengas.wav

Peak level 100.0 %
Track quality 100.0 %
Test CRC 59EC43E8
Copy CRC 59EC43E8
Accurately ripped (confidence 20) [10E4A401]
Copy OK

Track 23

Filename K:\My torrents\Die Aerzte – 2001 – 5, 6, 7, 8 – Bullenstaat!\23. die Arzte – ‘Tschuldigung Bier.wav

Pre-gap length 0:00:01.04

Peak level 100.0 %
Track quality 100.0 %
Test CRC E35B36D0
Copy CRC E35B36D0
Accurately ripped (confidence 20) [B264EA04]
Copy OK

Track 24

Filename K:\My torrents\Die Aerzte – 2001 – 5, 6, 7, 8 – Bullenstaat!\24. die Arzte – Knuppelbullendub.wav

Peak level 100.0 %
Track quality 100.0 %
Test CRC 3AF53396
Copy CRC 3AF53396
Accurately ripped (confidence 20) [8FC1A0E4]
Copy OK

Track 25

Filename K:\My torrents\Die Aerzte – 2001 – 5, 6, 7, 8 – Bullenstaat!\25. die Arzte – Ich bin glucklich.wav

Peak level 100.0 %
Track quality 100.0 %
Test CRC 06CA05AC
Copy CRC 06CA05AC
Accurately ripped (confidence 20) [D9945A26]
Copy OK

Track 26

Filename K:\My torrents\Die Aerzte – 2001 – 5, 6, 7, 8 – Bullenstaat!\26. die Arzte – 1 2XU.wav

Pre-gap length 0:00:09.40

Peak level 100.0 %
Track quality 100.0 %
Test CRC A0AE9D5B
Copy CRC A0AE9D5B
Accurately ripped (confidence 20) [7D1E95A8]
Copy OK

Track 27

Filename K:\My torrents\Die Aerzte – 2001 – 5, 6, 7, 8 – Bullenstaat!\27. die Arzte – Ihr Helden.wav

Pre-gap length 0:00:01.54

Peak level 100.0 %
Track quality 100.0 %
Test CRC 339747F7
Copy CRC 339747F7
Accurately ripped (confidence 20) [66BFE8BB]
Copy OK

Track 28

Filename K:\My torrents\Die Aerzte – 2001 – 5, 6, 7, 8 – Bullenstaat!\28. die Arzte – I Hate Hitler.wav

Peak level 100.0 %
Track quality 100.0 %
Test CRC 6CBBAE0B
Copy CRC 6CBBAE0B
Accurately ripped (confidence 20) [C9665B8E]
Copy OK

Track 29

Filename K:\My torrents\Die Aerzte – 2001 – 5, 6, 7, 8 – Bullenstaat!\29. die Arzte – Samen im Darm.wav

Peak level 100.0 %
Track quality 100.0 %
Test CRC B5052F5C
Copy CRC B5052F5C
Accurately ripped (confidence 20) [B5EA7B25]
Copy OK

Track 30

Filename K:\My torrents\Die Aerzte – 2001 – 5, 6, 7, 8 – Bullenstaat!\30. die Arzte – BGS.wav

Peak level 100.0 %
Track quality 100.0 %
Test CRC 0E0388B1
Copy CRC 0E0388B1
Accurately ripped (confidence 20) [BA69C202]
Copy OK

Track 31

Filename K:\My torrents\Die Aerzte – 2001 – 5, 6, 7, 8 – Bullenstaat!\31. die Arzte – Kein Problem.wav

Peak level 100.0 %
Track quality 100.0 %
Test CRC 980CBA25
Copy CRC 980CBA25
Accurately ripped (confidence 19) [36258920]
Copy OK

Track 32

Filename K:\My torrents\Die Aerzte – 2001 – 5, 6, 7, 8 – Bullenstaat!\32. die Arzte – Tittenfetischisten.wav

Peak level 100.0 %
Track quality 100.0 %
Test CRC CD65BE8A
Copy CRC CD65BE8A
Accurately ripped (confidence 20) [12401A67]
Copy OK

Track 33

Filename K:\My torrents\Die Aerzte – 2001 – 5, 6, 7, 8 – Bullenstaat!\33. die Arzte – Paul.wav

Pre-gap length 0:00:02.49

Peak level 100.0 %
Track quality 100.0 %
Test CRC 964E44FC
Copy CRC 964E44FC
Accurately ripped (confidence 20) [B0B48E9A]
Copy OK

Track 34

Filename K:\My torrents\Die Aerzte – 2001 – 5, 6, 7, 8 – Bullenstaat!\34. die Arzte – So froh.wav

Peak level 100.0 %
Track quality 99.5 %
Test CRC 5FB48718
Copy CRC 5FB48718
Accurately ripped (confidence 20) [81D037BC]
Copy OK

33 track(s) accurately ripped
1 track(s) not present in the AccurateRip database

Some tracks could not be verified as accurate

No errors occurred

End of status report

REM GENRE “Punk Rock”
REM DATE 2001
REM DISCID BF08C422
REM COMMENT “ExactAudioCopy v0.99pb5”
PERFORMER “die Arzte”
TITLE “5, 6, 7, 8 – Bullenstaat!”
FILE “01. die Arzte – Punkbabies.wav” WAVE
TRACK 01 AUDIO
TITLE “Punkbabies”
PERFORMER “die Arzte”
INDEX 01 00:00:00
FILE “02. die Arzte – West Berlin.wav” WAVE
TRACK 02 AUDIO
TITLE “West Berlin”
PERFORMER “die Arzte”
INDEX 01 00:00:00
TRACK 03 AUDIO
TITLE “Mc Donalds”
PERFORMER “die Arzte”
INDEX 00 00:44:40
FILE “03. die Arzte – Mc Donalds.wav” WAVE
INDEX 01 00:00:00
FILE “04. die Arzte – Bravopunks.wav” WAVE
TRACK 04 AUDIO
TITLE “Bravopunks”
PERFORMER “die Arzte”
INDEX 01 00:00:00
TRACK 05 AUDIO
TITLE “A-moll”
PERFORMER “die Arzte”
INDEX 00 01:14:50
FILE “05. die Arzte – A-moll.wav” WAVE
INDEX 01 00:00:00
TRACK 06 AUDIO
TITLE “Chile 3”
PERFORMER “die Arzte”
INDEX 00 00:30:11
FILE “06. die Arzte – Chile 3.wav” WAVE
INDEX 01 00:00:00
TRACK 07 AUDIO
TITLE “Elektrobier”
PERFORMER “die Arzte”
INDEX 00 00:40:60
FILE “07. die Arzte – Elektrobier.wav” WAVE
INDEX 01 00:00:00
FILE “08. die Arzte – Deutschland verdrecke.wav” WAVE
TRACK 08 AUDIO
TITLE “Deutschland verdrecke”
PERFORMER “die Arzte”
INDEX 01 00:00:00
FILE “09. die Arzte – That’s Punkrock.wav” WAVE
TRACK 09 AUDIO
TITLE “That’s Punkrock”
PERFORMER “die Arzte”
INDEX 01 00:00:00
FILE “10. die Arzte – Hass auf Bier.wav” WAVE
TRACK 10 AUDIO
TITLE “Hass auf Bier”
PERFORMER “die Arzte”
INDEX 01 00:00:00
TRACK 11 AUDIO
TITLE “Bullenschwein”
PERFORMER “die Arzte”
INDEX 00 00:39:66
FILE “11. die Arzte – Bullenschwein.wav” WAVE
INDEX 01 00:00:00
FILE “12. die Arzte – Cops Underwater.wav” WAVE
TRACK 12 AUDIO
TITLE “Cops Underwater”
PERFORMER “die Arzte”
INDEX 01 00:00:00
FILE “13. die Arzte – Ich bin ein Punk.wav” WAVE
TRACK 13 AUDIO
TITLE “Ich bin ein Punk”
PERFORMER “die Arzte”
INDEX 01 00:00:00
FILE “14. die Arzte – Rockabilly War.wav” WAVE
TRACK 14 AUDIO
TITLE “Rockabilly War”
PERFORMER “die Arzte”
INDEX 01 00:00:00
FILE “15. die Arzte – Biergourmet.wav” WAVE
TRACK 15 AUDIO
TITLE “Biergourmet”
PERFORMER “die Arzte”
INDEX 01 00:00:00
TRACK 16 AUDIO
TITLE “Widerstand”
PERFORMER “die Arzte”
INDEX 00 00:36:62
FILE “16. die Arzte – Widerstand.wav” WAVE
INDEX 01 00:00:00
TRACK 17 AUDIO
TITLE “Killing Joke”
PERFORMER “die Arzte”
INDEX 00 00:42:05
FILE “17. die Arzte – Killing Joke.wav” WAVE
INDEX 01 00:00:00
FILE “18. die Arzte – Rache.wav” WAVE
TRACK 18 AUDIO
TITLE “Rache”
PERFORMER “die Arzte”
INDEX 01 00:00:00
TRACK 19 AUDIO
TITLE “Studentenmadchen”
PERFORMER “die Arzte”
INDEX 00 00:19:28
FILE “19. die Arzte – Studentenmadchen.wav” WAVE
INDEX 01 00:00:00
TRACK 20 AUDIO
TITLE “Geboren zu verlieren”
PERFORMER “die Arzte”
INDEX 00 01:03:44
FILE “20. die Arzte – Geboren zu verlieren.wav” WAVE
INDEX 01 00:00:00
FILE “21. die Arzte – Rockabilly Peace.wav” WAVE
TRACK 21 AUDIO
TITLE “Rockabilly Peace”
PERFORMER “die Arzte”
INDEX 01 00:00:00
FILE “22. die Arzte – Tranengas.wav” WAVE
TRACK 22 AUDIO
TITLE “Tranengas”
PERFORMER “die Arzte”
INDEX 01 00:00:00
TRACK 23 AUDIO
TITLE “‘Tschuldigung Bier”
PERFORMER “die Arzte”
INDEX 00 00:58:51
FILE “23. die Arzte – ‘Tschuldigung Bier.wav” WAVE
INDEX 01 00:00:00
FILE “24. die Arzte – Knuppelbullendub.wav” WAVE
TRACK 24 AUDIO
TITLE “Knuppelbullendub”
PERFORMER “die Arzte”
INDEX 01 00:00:00
FILE “25. die Arzte – Ich bin glucklich.wav” WAVE
TRACK 25 AUDIO
TITLE “Ich bin glucklich”
PERFORMER “die Arzte”
INDEX 01 00:00:00
TRACK 26 AUDIO
TITLE “1 2XU”
PERFORMER “die Arzte”
INDEX 00 01:15:28
FILE “26. die Arzte – 1 2XU.wav” WAVE
INDEX 01 00:00:00
TRACK 27 AUDIO
TITLE “Ihr Helden”
PERFORMER “die Arzte”
INDEX 00 01:17:70
FILE “27. die Arzte – Ihr Helden.wav” WAVE
INDEX 01 00:00:00
FILE “28. die Arzte – I Hate Hitler.wav” WAVE
TRACK 28 AUDIO
TITLE “I Hate Hitler”
PERFORMER “die Arzte”
INDEX 01 00:00:00
FILE “29. die Arzte – Samen im Darm.wav” WAVE
TRACK 29 AUDIO
TITLE “Samen im Darm”
PERFORMER “die Arzte”
INDEX 01 00:00:00
FILE “30. die Arzte – BGS.wav” WAVE
TRACK 30 AUDIO
TITLE “BGS”
PERFORMER “die Arzte”
INDEX 01 00:00:00
FILE “31. die Arzte – Kein Problem.wav” WAVE
TRACK 31 AUDIO
TITLE “Kein Problem”
PERFORMER “die Arzte”
INDEX 01 00:00:00
FILE “32. die Arzte – Tittenfetischisten.wav” WAVE
TRACK 32 AUDIO
TITLE “Tittenfetischisten”
PERFORMER “die Arzte”
INDEX 01 00:00:00
TRACK 33 AUDIO
TITLE “Paul”
PERFORMER “die Arzte”
INDEX 00 00:07:54
FILE “33. die Arzte – Paul.wav” WAVE
INDEX 01 00:00:00
FILE “34. die Arzte – So froh.wav” WAVE
TRACK 34 AUDIO
TITLE “So froh”
PERFORMER “die Arzte”
INDEX 01 00:00:00


Leave a Reply

Your email address will not be published. Required fields are marked *

This site uses Akismet to reduce spam. Learn how your comment data is processed.