Die Ärzte – 13




Artist: Die Ärzte
Year: 1998
Genre: Punk
Notes: Discogs
Add. Notes:
Cover incl.: Yes
Encoder: FLAC
Bitrate: ~1000 kBit/s (44.1 kHz/16 Bit/s)
Log & Cue incl.: Yes
Size: 460,3 MB
Password: “slam” (without ” “)


All Downloads/Hosters are compatible

Download 1
KatFile.com
Turbobit.net
FileFactory.com
Rapidgator.net
Download 2
KatFile.com
Turbobit.net
FileFactory.com
Rapidgator.net

Tracklist:

Punk ist…
Ein Lied für dich
Goldenes Handwerk
Meine Freunde
Party stinkt
1/2 Lovesong
Ignorama
Nie wieder Krieg, nie mehr Las Vegas!
Rebell
Der Graf
Grau
Angeber
Männer sind Schweine
Liebe und Schmerz
Nie gesagt
Der Infant
Grotesksong
Lady (Hidden-Track)

EAC-Log, CUE-Sheed & NFO:

Click to open spoiler
Exact Audio Copy V0.99 prebeta 4 from 23. January 2008

EAC extraction logfile from 30. December 2008, 18:18

Die Ärzte / 13

Used drive : HL-DT-STDVDRAM GSA-4163B Adapter: 1 ID: 0

Read mode : Secure
Utilize accurate stream : Yes
Defeat audio cache : Yes
Make use of C2 pointers : No

Read offset correction : 667
Overread into Lead-In and Lead-Out : No
Fill up missing offset samples with silence : Yes
Delete leading and trailing silent blocks : No
Null samples used in CRC calculations : Yes
Used interface : Native Win32 interface for Win NT & 2000
Gap handling : Appended to previous track

Used output format : User Defined Encoder
Selected bitrate : 128 kBit/s
Quality : High
Add ID3 tag : No
Command line compressor : C:\Programme\Exact Audio Copy\Flac\flac.exe
Additional command line options : -V -8 -T “artist=%a” -T “title=%t” -T “album=%g” -T “date=%y” -T “tracknumber=%n” -T “genre=%m” %s

TOC of the extracted CD

Track | Start | Length | Start sector | End sector
———————————————————
1 | 3:53.07 | 3:42.18 | 17482 | 34149
2 | 7:35.25 | 2:43.25 | 34150 | 46399
3 | 10:18.50 | 3:35.60 | 46400 | 62584
4 | 13:54.35 | 1:47.67 | 62585 | 70676
5 | 15:42.27 | 3:26.35 | 70677 | 86161
6 | 19:08.62 | 3:52.33 | 86162 | 103594
7 | 23:01.20 | 3:00.25 | 103595 | 117119
8 | 26:01.45 | 2:35.67 | 117120 | 128811
9 | 28:37.37 | 3:52.33 | 128812 | 146244
10 | 32:29.70 | 3:46.00 | 146245 | 163194
11 | 36:15.70 | 2:44.30 | 163195 | 175524
12 | 39:00.25 | 3:12.17 | 175525 | 189941
13 | 42:12.42 | 4:17.70 | 189942 | 209286
14 | 46:30.37 | 3:54.35 | 209287 | 226871
15 | 50:24.72 | 5:00.35 | 226872 | 249406
16 | 55:25.32 | 3:07.60 | 249407 | 263491
17 | 58:33.17 | 3:52.15 | 263492 | 280906

Track 1

Filename C:\EACrips\Die Ärzte – 1998 – 13\01 – Punk ist….wav

Pre-gap length 0:03:55.09

Peak level 100.0 %
Track quality 100.0 %
Test CRC 12F1B814
Copy CRC 12F1B814
Accurately ripped (confidence 91) [B38F875B]
Copy OK

Track 2

Filename C:\EACrips\Die Ärzte – 1998 – 13\02 – Ein Lied für dich.wav

Peak level 99.5 %
Track quality 100.0 %
Test CRC EF1A740B
Copy CRC EF1A740B
Accurately ripped (confidence 89) [CCFCCC9F]
Copy OK

Track 3

Filename C:\EACrips\Die Ärzte – 1998 – 13\03 – Goldenes Handwerk.wav

Peak level 99.0 %
Track quality 100.0 %
Test CRC 18CEF9DF
Copy CRC 18CEF9DF
Accurately ripped (confidence 88) [38FF3875]
Copy OK

Track 4

Filename C:\EACrips\Die Ärzte – 1998 – 13\04 – Meine Freunde.wav

Pre-gap length 0:00:00.70

Peak level 99.3 %
Track quality 99.9 %
Test CRC DE1A2793
Copy CRC DE1A2793
Accurately ripped (confidence 86) [5B7C7EAC]
Copy OK

Track 5

Filename C:\EACrips\Die Ärzte – 1998 – 13\05 – Party stinkt.wav

Peak level 99.3 %
Track quality 100.0 %
Test CRC A6249D8D
Copy CRC A6249D8D
Accurately ripped (confidence 88) [4784226D]
Copy OK

Track 6

Filename C:\EACrips\Die Ärzte – 1998 – 13\06 – 1,2 Lovesong.wav

Peak level 99.0 %
Track quality 99.9 %
Test CRC F5935438
Copy CRC F5935438
Accurately ripped (confidence 85) [FE93FA81]
Copy OK

Track 7

Filename C:\EACrips\Die Ärzte – 1998 – 13\07 – Ignorama.wav

Peak level 99.8 %
Track quality 99.9 %
Test CRC 3C6E6E98
Copy CRC 3C6E6E98
Accurately ripped (confidence 84) [079EF581]
Copy OK

Track 8

Filename C:\EACrips\Die Ärzte – 1998 – 13\08 – Nie wieder Krieg, nie mehr Las Vegas!.wav

Pre-gap length 0:00:13.84

Peak level 99.0 %
Track quality 100.0 %
Test CRC 7A9B9454
Copy CRC 7A9B9454
Accurately ripped (confidence 86) [D46BEBC0]
Copy OK

Track 9

Filename C:\EACrips\Die Ärzte – 1998 – 13\09 – Rebell.wav

Peak level 99.8 %
Track quality 99.9 %
Test CRC E1FAFFBE
Copy CRC E1FAFFBE
Accurately ripped (confidence 85) [8403C59D]
Copy OK

Track 10

Filename C:\EACrips\Die Ärzte – 1998 – 13\10 – Der Graf.wav

Pre-gap length 0:00:00.80

Peak level 99.0 %
Track quality 100.0 %
Test CRC 4687C259
Copy CRC 4687C259
Accurately ripped (confidence 80) [363AEAFF]
Copy OK

Track 11

Filename C:\EACrips\Die Ärzte – 1998 – 13\11 – Grau.wav

Pre-gap length 0:00:01.20

Peak level 99.7 %
Track quality 100.0 %
Test CRC A421C85D
Copy CRC A421C85D
Accurately ripped (confidence 83) [C13623A6]
Copy OK

Track 12

Filename C:\EACrips\Die Ärzte – 1998 – 13\12 – Angeber.wav

Peak level 99.6 %
Track quality 100.0 %
Test CRC 549A84CE
Copy CRC 549A84CE
Accurately ripped (confidence 82) [8D36739A]
Copy OK

Track 13

Filename C:\EACrips\Die Ärzte – 1998 – 13\13 – Männer sind Schweine.wav

Pre-gap length 0:00:12.73

Peak level 99.2 %
Track quality 100.0 %
Test CRC B1287277
Copy CRC B1287277
Accurately ripped (confidence 80) [EEC70E09]
Copy OK

Track 14

Filename C:\EACrips\Die Ärzte – 1998 – 13\14 – Liebe und Schmerz.wav

Pre-gap length 0:00:00.36

Peak level 99.9 %
Track quality 100.0 %
Test CRC D5367F1D
Copy CRC D5367F1D
Accurately ripped (confidence 78) [0BB2CF13]
Copy OK

Track 15

Filename C:\EACrips\Die Ärzte – 1998 – 13\15 – Nie gesagt.wav

Pre-gap length 0:00:01.73

Peak level 100.0 %
Track quality 100.0 %
Test CRC 3C8BB7C5
Copy CRC 3C8BB7C5
Accurately ripped (confidence 80) [F270B367]
Copy OK

Track 16

Filename C:\EACrips\Die Ärzte – 1998 – 13\16 – Der Infant.wav

Pre-gap length 0:00:02.62

Peak level 99.8 %
Track quality 100.0 %
Test CRC BC6A0461
Copy CRC BC6A0461
Accurately ripped (confidence 79) [73DE318D]
Copy OK

Track 17

Filename C:\EACrips\Die Ärzte – 1998 – 13\17 – Grotesksong.wav

Pre-gap length 0:00:01.36

Peak level 99.2 %
Track quality 100.0 %
Test CRC 141627A8
Copy CRC 141627A8
Accurately ripped (confidence 83) [610C958F]
Copy OK

All tracks accurately ripped

No errors occurred

End of status report

————————————————————

Exact Audio Copy V0.99 prebeta 4 from 23. January 2008

EAC extraction logfile from 30. December 2008, 18:24

Die Ärzte / 13

Used drive : HL-DT-STDVDRAM GSA-4163B Adapter: 1 ID: 0

Read mode : Secure
Utilize accurate stream : Yes
Defeat audio cache : Yes
Make use of C2 pointers : No

Read offset correction : 667
Overread into Lead-In and Lead-Out : No
Fill up missing offset samples with silence : Yes
Delete leading and trailing silent blocks : No
Null samples used in CRC calculations : Yes
Used interface : Native Win32 interface for Win NT & 2000

Used output format : User Defined Encoder
Selected bitrate : 128 kBit/s
Quality : High
Add ID3 tag : No
Command line compressor : C:\Programme\Exact Audio Copy\Flac\flac.exe
Additional command line options : -V -8 -T “artist=%a” -T “title=%t” -T “album=%g” -T “date=%y” -T “tracknumber=%n” -T “genre=%m” %s

TOC of the extracted CD

Track | Start | Length | Start sector | End sector
———————————————————
1 | 3:53.07 | 3:42.18 | 17482 | 34149
2 | 7:35.25 | 2:43.25 | 34150 | 46399
3 | 10:18.50 | 3:35.60 | 46400 | 62584
4 | 13:54.35 | 1:47.67 | 62585 | 70676
5 | 15:42.27 | 3:26.35 | 70677 | 86161
6 | 19:08.62 | 3:52.33 | 86162 | 103594
7 | 23:01.20 | 3:00.25 | 103595 | 117119
8 | 26:01.45 | 2:35.67 | 117120 | 128811
9 | 28:37.37 | 3:52.33 | 128812 | 146244
10 | 32:29.70 | 3:46.00 | 146245 | 163194
11 | 36:15.70 | 2:44.30 | 163195 | 175524
12 | 39:00.25 | 3:12.17 | 175525 | 189941
13 | 42:12.42 | 4:17.70 | 189942 | 209286
14 | 46:30.37 | 3:54.35 | 209287 | 226871
15 | 50:24.72 | 5:00.35 | 226872 | 249406
16 | 55:25.32 | 3:07.60 | 249407 | 263491
17 | 58:33.17 | 3:52.15 | 263492 | 280906

Range status and errors

Selected range (Sectors 0-17481)

Filename C:\EACrips\Die Ärzte – 1998 – 13\00 – Lady (Hidden Track).wav

Peak level 99.1 %
Range quality 99.9 %
Copy CRC 402F26A8
Copy OK

No errors occurred

AccurateRip summary

No tracks could be verified as accurate

End of status report

————————————————————

Exact Audio Copy V0.99 prebeta 4 from 23. January 2008

EAC extraction logfile from 30. December 2008, 18:27

Die Ärzte / 13

Used drive : HL-DT-STDVDRAM GSA-4163B Adapter: 1 ID: 0

Read mode : Secure
Utilize accurate stream : Yes
Defeat audio cache : Yes
Make use of C2 pointers : No

Read offset correction : 667
Overread into Lead-In and Lead-Out : No
Fill up missing offset samples with silence : Yes
Delete leading and trailing silent blocks : No
Null samples used in CRC calculations : Yes
Used interface : Native Win32 interface for Win NT & 2000

Used output format : User Defined Encoder
Selected bitrate : 128 kBit/s
Quality : High
Add ID3 tag : No
Command line compressor : C:\Programme\Exact Audio Copy\Flac\flac.exe
Additional command line options : -V -8 -T “artist=%a” -T “title=%t” -T “album=%g” -T “date=%y” -T “tracknumber=%n” -T “genre=%m” %s

TOC of the extracted CD

Track | Start | Length | Start sector | End sector
———————————————————
1 | 3:53.07 | 3:42.18 | 17482 | 34149
2 | 7:35.25 | 2:43.25 | 34150 | 46399
3 | 10:18.50 | 3:35.60 | 46400 | 62584
4 | 13:54.35 | 1:47.67 | 62585 | 70676
5 | 15:42.27 | 3:26.35 | 70677 | 86161
6 | 19:08.62 | 3:52.33 | 86162 | 103594
7 | 23:01.20 | 3:00.25 | 103595 | 117119
8 | 26:01.45 | 2:35.67 | 117120 | 128811
9 | 28:37.37 | 3:52.33 | 128812 | 146244
10 | 32:29.70 | 3:46.00 | 146245 | 163194
11 | 36:15.70 | 2:44.30 | 163195 | 175524
12 | 39:00.25 | 3:12.17 | 175525 | 189941
13 | 42:12.42 | 4:17.70 | 189942 | 209286
14 | 46:30.37 | 3:54.35 | 209287 | 226871
15 | 50:24.72 | 5:00.35 | 226872 | 249406
16 | 55:25.32 | 3:07.60 | 249407 | 263491
17 | 58:33.17 | 3:52.15 | 263492 | 280906

Range status and errors

Selected range (Sectors 0-17481)

Filename C:\EACrips\Die Ärzte – 1998 – 13\00 – Lady (Hidden Track).wav

Peak level 99.1 %
Range quality 99.9 %
Copy CRC 402F26A8
Copy OK

No errors occurred

AccurateRip summary

No tracks could be verified as accurate

End of status report

REM ACCURATERIPID 002c0b83-0213c0cf-110db811
REM GENRE “Punk Rock”
REM DATE 1998
REM DISCID F10DB811
REM COMMENT “ExactAudioCopy v0.99pb4”
PERFORMER “Die Arzte”
TITLE “13”
FILE “00 – Lady (Hidden Track).flac” WAVE
TRACK 01 AUDIO
TITLE “Punk ist…”
PERFORMER “Die Arzte”
INDEX 00 00:00:00
FILE “01 – Punk ist….flac” WAVE
INDEX 01 00:00:00
FILE “02 – Ein Lied fur dich.flac” WAVE
TRACK 02 AUDIO
TITLE “Ein Lied fur dich”
PERFORMER “Die Arzte”
INDEX 01 00:00:00
FILE “03 – Goldenes Handwerk.flac” WAVE
TRACK 03 AUDIO
TITLE “Goldenes Handwerk”
PERFORMER “Die Arzte”
INDEX 01 00:00:00
TRACK 04 AUDIO
TITLE “Meine Freunde”
PERFORMER “Die Arzte”
INDEX 00 03:35:07
FILE “04 – Meine Freunde.flac” WAVE
INDEX 01 00:00:00
FILE “05 – Party stinkt.flac” WAVE
TRACK 05 AUDIO
TITLE “Party stinkt”
PERFORMER “Die Arzte”
INDEX 01 00:00:00
FILE “06 – 1,2 Lovesong.flac” WAVE
TRACK 06 AUDIO
TITLE “1/2 Lovesong”
PERFORMER “Die Arzte”
INDEX 01 00:00:00
FILE “07 – Ignorama.flac” WAVE
TRACK 07 AUDIO
TITLE “Ignorama”
PERFORMER “Die Arzte”
INDEX 01 00:00:00
TRACK 08 AUDIO
TITLE “Nie wieder Krieg, nie mehr Las Vegas!”
PERFORMER “Die Arzte”
INDEX 00 02:46:37
FILE “08 – Nie wieder Krieg, nie mehr Las Vegas!.flac” WAVE
INDEX 01 00:00:00
FILE “09 – Rebell.flac” WAVE
TRACK 09 AUDIO
TITLE “Rebell”
PERFORMER “Die Arzte”
INDEX 01 00:00:00
TRACK 10 AUDIO
TITLE “Der Graf”
PERFORMER “Die Arzte”
INDEX 00 03:51:48
FILE “10 – Der Graf.flac” WAVE
INDEX 01 00:00:00
TRACK 11 AUDIO
TITLE “Grau”
PERFORMER “Die Arzte”
INDEX 00 03:44:60
FILE “11 – Grau.flac” WAVE
INDEX 01 00:00:00
FILE “12 – Angeber.flac” WAVE
TRACK 12 AUDIO
TITLE “Angeber”
PERFORMER “Die Arzte”
INDEX 01 00:00:00
TRACK 13 AUDIO
TITLE “Manner sind Schweine”
PERFORMER “Die Arzte”
INDEX 00 02:59:37
FILE “13 – Manner sind Schweine.flac” WAVE
INDEX 01 00:00:00
TRACK 14 AUDIO
TITLE “Liebe und Schmerz”
PERFORMER “Die Arzte”
INDEX 00 04:17:43
FILE “14 – Liebe und Schmerz.flac” WAVE
INDEX 01 00:00:00
TRACK 15 AUDIO
TITLE “Nie gesagt”
PERFORMER “Die Arzte”
INDEX 00 03:52:55
FILE “15 – Nie gesagt.flac” WAVE
INDEX 01 00:00:00
TRACK 16 AUDIO
TITLE “Der Infant”
PERFORMER “Die Arzte”
INDEX 00 04:57:63
FILE “16 – Der Infant.flac” WAVE
INDEX 01 00:00:00
TRACK 17 AUDIO
TITLE “Grotesksong”
PERFORMER “Die Arzte”
INDEX 00 03:06:33
FILE “17 – Grotesksong.flac” WAVE
INDEX 01 00:00:00


Leave a Reply

Your email address will not be published. Required fields are marked *

This site uses Akismet to reduce spam. Learn how your comment data is processed.