Die Apokalyptischen Reiter – Samurai




Artist: Die Apokalyptischen Reiter
Year: 2004
Genre: Metal
Notes: Discogs
Add. Notes:
Cover incl.: Yes
Encoder: FLAC
Bitrate: ~1000 kBit/s (44.1 kHz/16 Bit/s)
Log & Cue incl.: Yes
Size: 417,13 MB
Password: “slam” (without ” “)


All Downloads/Hosters are compatible

Download 1
Turbobit.net
Rapidgator.net
KatFile.com
UploadRar.com
Download 2
Turbobit.net
Rapidgator.net
KatFile.com
UploadRar.com
Download 3
Turbobit.net
Rapidgator.net
KatFile.com
UploadRar.com

Tracklist:

1 - Wahnsinn - 3:05
2 - Eruption - 4:09
3 - Rock 'N' Roll - 1:57
4 - Silence Of Sorrow - 3:52
5 - Der Teufel - 5:15
6 - Reitermaniacs - 5:46
7 - Barmherzigkeit - 3:29
8 - Per Aspera Ad Astra - 4:31
9 - Lazy Day - 3:12
10 - Die Sonne Scheint - 3:09
11 - Roll My Heart - 2:37
12 - Hey-Ho - 3:58
13 - Northern Lights - 3:18

EAC-Log, CUE-Sheed & NFO:

Click to open spoiler
Exact Audio Copy V1.0 beta 6 from 9. April 2015

EAC extraction logfile from 1. November 2016, 22:10

Die Apokalyptischen Reiter / Samurai

Used drive : hp DVDRW SU208FB Adapter: 1 ID: 0

Read mode : Secure
Utilize accurate stream : Yes
Defeat audio cache : Yes
Make use of C2 pointers : No

Read offset correction : 6
Overread into Lead-In and Lead-Out : No
Fill up missing offset samples with silence : Yes
Delete leading and trailing silent blocks : No
Null samples used in CRC calculations : Yes
Used interface : Native Win32 interface for Win NT & 2000

Used output format : Internal WAV Routines
Sample format : 44.100 Hz; 16 Bit; Stereo

TOC of the extracted CD

Track | Start | Length | Start sector | End sector
———————————————————
1 | 0:00.00 | 3:05.60 | 0 | 13934
2 | 3:05.60 | 4:09.49 | 13935 | 32658
3 | 7:15.34 | 1:57.55 | 32659 | 41488
4 | 9:13.14 | 3:52.67 | 41489 | 58955
5 | 13:06.06 | 5:15.61 | 58956 | 82641
6 | 18:21.67 | 5:46.43 | 82642 | 108634
7 | 24:08.35 | 3:29.28 | 108635 | 124337
8 | 27:37.63 | 4:31.38 | 124338 | 144700
9 | 32:09.26 | 3:12.43 | 144701 | 159143
10 | 35:21.69 | 3:09.36 | 159144 | 173354
11 | 38:31.30 | 2:37.72 | 173355 | 185201
12 | 41:09.27 | 3:58.64 | 185202 | 203115
13 | 45:08.16 | 3:18.39 | 203116 | 218004

Range status and errors

Selected range

Filename C:\Die Apokalyptischen Reiter – Samurai.wav

Peak level 100.0 %
Extraction speed 3.5 X
Range quality 100.0 %
Test CRC 66A5746B
Copy CRC 66A5746B
Copy OK

No errors occurred

AccurateRip summary

Track 1 accurately ripped (confidence 3) [BC7A68C2] (AR v2)
Track 2 accurately ripped (confidence 3) [71D26747] (AR v2)
Track 3 accurately ripped (confidence 3) [60297859] (AR v2)
Track 4 accurately ripped (confidence 3) [B50CA976] (AR v2)
Track 5 accurately ripped (confidence 3) [EA25928F] (AR v2)
Track 6 accurately ripped (confidence 3) [BC01425D] (AR v2)
Track 7 accurately ripped (confidence 3) [73303D4B] (AR v2)
Track 8 accurately ripped (confidence 3) [62164158] (AR v2)
Track 9 accurately ripped (confidence 3) [1F8903AE] (AR v2)
Track 10 accurately ripped (confidence 3) [234EDA80] (AR v2)
Track 11 accurately ripped (confidence 3) [62819DFF] (AR v2)
Track 12 accurately ripped (confidence 3) [74399FCA] (AR v2)
Track 13 accurately ripped (confidence 3) [C8044381] (AR v2)

All tracks accurately ripped

End of status report

==== Log checksum 1F55826E8C6A2977E058E05DCA3020DE2B08E3D395574960617C255C26C11995 ====

REM GENRE Metal
REM DATE 2004
REM DISCID A10B5A0D
REM COMMENT “ExactAudioCopy v1.0b6”
PERFORMER “Die Apokalyptischen Reiter”
TITLE “Samurai”
FILE “Die Apokalyptischen Reiter – Samurai.flac” WAVE
TRACK 01 AUDIO
TITLE “Wahnsinn”
PERFORMER “Die Apokalyptischen Reiter”
INDEX 01 00:00:00
TRACK 02 AUDIO
TITLE “Eruption”
PERFORMER “Die Apokalyptischen Reiter”
INDEX 01 03:05:60
TRACK 03 AUDIO
TITLE “Rock ‘n’ Roll”
PERFORMER “Die Apokalyptischen Reiter”
INDEX 01 07:15:34
TRACK 04 AUDIO
TITLE “Silence Of Sorrow”
PERFORMER “Die Apokalyptischen Reiter”
INDEX 01 09:13:14
TRACK 05 AUDIO
TITLE “Der Teufel”
PERFORMER “Die Apokalyptischen Reiter”
INDEX 01 13:06:06
TRACK 06 AUDIO
TITLE “Reitermaniacs”
PERFORMER “Die Apokalyptischen Reiter”
INDEX 00 18:21:24
INDEX 01 18:21:67
TRACK 07 AUDIO
TITLE “Barmherzigkeit”
PERFORMER “Die Apokalyptischen Reiter”
INDEX 01 24:08:35
TRACK 08 AUDIO
TITLE “Per Aspera Ad Astra”
PERFORMER “Die Apokalyptischen Reiter”
INDEX 00 27:37:01
INDEX 01 27:37:63
TRACK 09 AUDIO
TITLE “Lazy Day”
PERFORMER “Die Apokalyptischen Reiter”
INDEX 00 32:06:72
INDEX 01 32:09:26
TRACK 10 AUDIO
TITLE “Die Sonne Scheint”
PERFORMER “Die Apokalyptischen Reiter”
INDEX 01 35:21:69
TRACK 11 AUDIO
TITLE “Roll My Heart”
PERFORMER “Die Apokalyptischen Reiter”
INDEX 00 38:29:05
INDEX 01 38:31:30
TRACK 12 AUDIO
TITLE “Hey-Ho”
PERFORMER “Die Apokalyptischen Reiter”
INDEX 01 41:09:27
TRACK 13 AUDIO
TITLE “Northern Lights”
PERFORMER “Die Apokalyptischen Reiter”
INDEX 01 45:08:16


Leave a Reply

Your email address will not be published. Required fields are marked *

Enter the text from the image below
 

This site uses Akismet to reduce spam. Learn how your comment data is processed.