Die Apokalyptischen Reiter – Riders On The Storm




Artist: Die Apokalyptischen Reiter
Year: 2006
Genre: Metal
Notes: Discogs
Add. Notes:
Cover incl.: Yes
Encoder: FLAC
Bitrate: ~1000 kBit/s (44.1 kHz/16 Bit/s)
Log & Cue incl.: Yes
Size: 428,5 MB
Password: “slam” (without ” “)


All Downloads/Hosters are compatible

Download 1
Turbobit.net
Rapidgator.net
KatFile.com
UploadRar.com
Download 2
Turbobit.net
Rapidgator.net
KatFile.com
UploadRar.com
Download 3
Turbobit.net
Rapidgator.net
KatFile.com
UploadRar.com

Tracklist:

1 - Friede Sei Mit Dir - 2:57
2 - Riders On The Storm - 3:48
3 - Seemann - 2:55
4 - Der Adler - 2:50
5 - Revolution - 4:26
6 - Wenn Ich Träume - 3:08
7 - Soldaten Dieser Erde - 3:29
8 - In The Land Of White Horses - 2:28
9 - Liebe - 4:19
10 - Schenk Mir Heut Nacht - 3:01
11 - Himmelskind - 3:33
12 - Mmmh - 5:00

EAC-Log, CUE-Sheed & NFO:

Click to open spoiler
Exact Audio Copy V1.0 beta 6 from 9. April 2015

EAC extraction logfile from 2. November 2016, 11:42

Die Apokalyptischen Reiter / Riders On The Storm

Used drive : hp DVDRW SU208FB Adapter: 1 ID: 0

Read mode : Secure
Utilize accurate stream : Yes
Defeat audio cache : Yes
Make use of C2 pointers : No

Read offset correction : 6
Overread into Lead-In and Lead-Out : No
Fill up missing offset samples with silence : Yes
Delete leading and trailing silent blocks : No
Null samples used in CRC calculations : Yes
Used interface : Native Win32 interface for Win NT & 2000

Used output format : Internal WAV Routines
Sample format : 44.100 Hz; 16 Bit; Stereo

TOC of the extracted CD

Track | Start | Length | Start sector | End sector
———————————————————
1 | 0:00.00 | 2:56.47 | 0 | 13246
2 | 2:56.47 | 3:47.55 | 13247 | 30326
3 | 6:44.27 | 2:55.15 | 30327 | 43466
4 | 9:39.42 | 2:50.12 | 43467 | 56228
5 | 12:29.54 | 4:26.33 | 56229 | 76211
6 | 16:56.12 | 3:08.15 | 76212 | 90326
7 | 20:04.27 | 3:28.58 | 90327 | 105984
8 | 23:33.10 | 2:27.61 | 105985 | 117070
9 | 26:00.71 | 4:19.03 | 117071 | 136498
10 | 30:19.74 | 3:01.21 | 136499 | 150094
11 | 33:21.20 | 3:33.17 | 150095 | 166086
12 | 36:54.37 | 3:27.40 | 166087 | 181651
13 | 40:22.02 | 5:00.16 | 181652 | 204167
14 | 45:22.18 | 2:59.00 | 204168 | 217592

Range status and errors

Selected range

Filename C:\Die Apokalyptischen Reiter – Riders On The Storm.wav

Peak level 98.5 %
Extraction speed 3.6 X
Range quality 100.0 %
Test CRC 1D70E86C
Copy CRC 1D70E86C
Copy OK

No errors occurred

AccurateRip summary

Track 1 accurately ripped (confidence 4) [634F9EF6] (AR v1)
Track 2 accurately ripped (confidence 4) [A0EA2F92] (AR v1)
Track 3 accurately ripped (confidence 4) [C2D32E68] (AR v1)
Track 4 accurately ripped (confidence 4) [A41D24EF] (AR v1)
Track 5 accurately ripped (confidence 4) [A8A2C8EA] (AR v1)
Track 6 accurately ripped (confidence 4) [A76487AB] (AR v1)
Track 7 accurately ripped (confidence 4) [F4BD87CF] (AR v1)
Track 8 accurately ripped (confidence 4) [965C1434] (AR v1)
Track 9 accurately ripped (confidence 4) [E4757289] (AR v1)
Track 10 accurately ripped (confidence 4) [AB4AE3FE] (AR v1)
Track 11 accurately ripped (confidence 4) [933B92EB] (AR v1)
Track 12 accurately ripped (confidence 4) [6E8ADBF6] (AR v1)
Track 13 accurately ripped (confidence 4) [EA9E192B] (AR v1)
Track 14 accurately ripped (confidence 4) [8D7FDC03] (AR v1)

All tracks accurately ripped

End of status report

==== Log checksum 70AC563FDEE0733BD10FD56BD6AB17B0D8052168023A6476D7A73A2A2C3FBAC6 ====

REM GENRE Metal
REM DATE 2006
REM DISCID 9A0B550E
REM COMMENT “ExactAudioCopy v1.0b6”
PERFORMER “Die Apokalyptischen Reiter”
TITLE “Riders On The Storm”
FILE “Die Apokalyptischen Reiter – Riders On The Storm.flac” WAVE
TRACK 01 AUDIO
TITLE “Friede Sei Mit Dir”
PERFORMER “Die Apokalyptischen Reiter”
INDEX 01 00:00:00
TRACK 02 AUDIO
TITLE “Riders On The Storm”
PERFORMER “Die Apokalyptischen Reiter”
INDEX 00 02:55:17
INDEX 01 02:56:47
TRACK 03 AUDIO
TITLE “Seemann”
PERFORMER “Die Apokalyptischen Reiter”
INDEX 00 06:43:04
INDEX 01 06:44:27
TRACK 04 AUDIO
TITLE “Der Adler”
PERFORMER “Die Apokalyptischen Reiter”
INDEX 00 09:38:04
INDEX 01 09:39:42
TRACK 05 AUDIO
TITLE “Revolution”
PERFORMER “Die Apokalyptischen Reiter”
INDEX 00 12:28:20
INDEX 01 12:29:54
TRACK 06 AUDIO
TITLE “Wenn Ich Traume”
PERFORMER “Die Apokalyptischen Reiter”
INDEX 00 16:54:70
INDEX 01 16:56:12
TRACK 07 AUDIO
TITLE “Soldaten Dieser Erde”
PERFORMER “Die Apokalyptischen Reiter”
INDEX 00 20:02:62
INDEX 01 20:04:27
TRACK 08 AUDIO
TITLE “In The Land Of White Horses”
PERFORMER “Die Apokalyptischen Reiter”
INDEX 00 23:32:27
INDEX 01 23:33:10
TRACK 09 AUDIO
TITLE “Liebe”
PERFORMER “Die Apokalyptischen Reiter”
INDEX 00 25:59:54
INDEX 01 26:00:71
TRACK 10 AUDIO
TITLE “Schenk Mir Heut Nacht”
PERFORMER “Die Apokalyptischen Reiter”
INDEX 00 30:19:33
INDEX 01 30:19:74
TRACK 11 AUDIO
TITLE “Himmelskind”
PERFORMER “Die Apokalyptischen Reiter”
INDEX 00 33:19:57
INDEX 01 33:21:20
TRACK 12 AUDIO
TITLE “Feuer”
PERFORMER “Die Apokalyptischen Reiter”
INDEX 00 36:53:39
INDEX 01 36:54:37
TRACK 13 AUDIO
TITLE “Mmmh”
PERFORMER “Die Apokalyptischen Reiter”
INDEX 00 40:20:61
INDEX 01 40:22:02
TRACK 14 AUDIO
TITLE “Peace May Be With You”
PERFORMER “Die Apokalyptischen Reiter”
INDEX 00 45:20:58
INDEX 01 45:22:18


Leave a Reply

Your email address will not be published. Required fields are marked *

This site uses Akismet to reduce spam. Learn how your comment data is processed.