Die Apokalyptischen Reiter – All You Need Is Love




Artist: Die Apokalyptischen Reiter
Year: 2004
Genre: Metal
Notes: Discogs
Add. Notes:
Cover incl.: Yes
Encoder: FLAC
Bitrate: ~900 kBit/s (44.1 kHz/16 Bit/s)
Log & Cue incl.: Yes
Size: 412,4 MB
Password: “slam” (without ” “)


All Downloads/Hosters are compatible

Download 1
Turbobit.net
Rapidgator.net
KatFile.com
UploadRar.com
Download 2
Turbobit.net
Rapidgator.net
KatFile.com
UploadRar.com
Download 3
Turbobit.net
Rapidgator.net
KatFile.com
UploadRar.com

Tracklist:

1 - Licked By The Tongues Of Pride - 3:36
2 - Unter Der Asche - 3:43
3 - Erhelle Meine Seele - 4:00
4 - Gone - 4:55
5 - Regret - 3:39
6 - Reitermania - 2:57
7 - Hate - 2:26
8 - Peace Of Mind - 2:55
9 - Geopfert - 3:29
10 - Rausch - 3:42
11 - Die Schönheit Der Sklaverei - 5:19
12 - ...Vom Ende Der Welt - 10:19

EAC-Log, CUE-Sheed & NFO:

Click to open spoiler
Exact Audio Copy V1.0 beta 6 from 9. April 2015

EAC extraction logfile from 2. November 2016, 12:47

Die Apokalyptischen Reiter / All You Need Is Love

Used drive : hp DVDRW SU208FB Adapter: 1 ID: 0

Read mode : Secure
Utilize accurate stream : Yes
Defeat audio cache : Yes
Make use of C2 pointers : No

Read offset correction : 6
Overread into Lead-In and Lead-Out : No
Fill up missing offset samples with silence : Yes
Delete leading and trailing silent blocks : No
Null samples used in CRC calculations : Yes
Used interface : Native Win32 interface for Win NT & 2000

Used output format : Internal WAV Routines
Sample format : 44.100 Hz; 16 Bit; Stereo

TOC of the extracted CD

Track | Start | Length | Start sector | End sector
———————————————————
1 | 0:00.00 | 3:35.42 | 0 | 16166
2 | 3:35.42 | 3:43.23 | 16167 | 32914
3 | 7:18.65 | 3:59.47 | 32915 | 50886
4 | 11:18.37 | 4:54.55 | 50887 | 72991
5 | 16:13.17 | 3:39.15 | 72992 | 89431
6 | 19:52.32 | 2:57.00 | 89432 | 102706
7 | 22:49.32 | 2:25.65 | 102707 | 113646
8 | 25:15.22 | 2:54.70 | 113647 | 126766
9 | 28:10.17 | 3:28.63 | 126767 | 142429
10 | 31:39.05 | 3:42.00 | 142430 | 159079
11 | 35:21.05 | 5:19.25 | 159080 | 183029
12 | 40:40.30 | 10:19.19 | 183030 | 229473

Range status and errors

Selected range

Filename C:\Die Apokalyptischen Reiter – All You Need Is Love.wav

Peak level 99.9 %
Extraction speed 3.6 X
Range quality 100.0 %
Test CRC 52F72018
Copy CRC 52F72018
Copy OK

No errors occurred

AccurateRip summary

Track 1 cannot be verified as accurate (confidence 8) [8C27E5BE], AccurateRip returned [3D30E3BF] (AR v2)
Track 2 cannot be verified as accurate (confidence 8) [DBCD4117], AccurateRip returned [98388831] (AR v2)
Track 3 cannot be verified as accurate (confidence 8) [56328FBC], AccurateRip returned [F7C950CE] (AR v2)
Track 4 cannot be verified as accurate (confidence 8) [1591D590], AccurateRip returned [E69264EE] (AR v2)
Track 5 cannot be verified as accurate (confidence 8) [AED2E4E4], AccurateRip returned [56975276] (AR v2)
Track 6 cannot be verified as accurate (confidence 8) [C102D637], AccurateRip returned [971B9815] (AR v2)
Track 7 cannot be verified as accurate (confidence 8) [835F924E], AccurateRip returned [4F3CF9F4] (AR v2)
Track 8 cannot be verified as accurate (confidence 8) [9881199D], AccurateRip returned [30817BE7] (AR v2)
Track 9 cannot be verified as accurate (confidence 7) [2AF23C31], AccurateRip returned [C970FFA6] (AR v2)
Track 10 cannot be verified as accurate (confidence 8) [275BD5AE], AccurateRip returned [367BF6F7] (AR v2)
Track 11 cannot be verified as accurate (confidence 8) [3050282D], AccurateRip returned [79A1F4F5] (AR v2)
Track 12 cannot be verified as accurate (confidence 8) [673E5D72], AccurateRip returned [5AE0128C] (AR v2)

No tracks could be verified as accurate
You may have a different pressing from the one(s) in the database

End of status report

==== Log checksum 2BB2812B503D908621054FA395C5C9D1C5B410386DF5D9B29B28F3D4FA2EEBCE ====

REM GENRE Metal
REM DATE 2004
REM DISCID 910BF30C
REM COMMENT “ExactAudioCopy v1.0b6”
PERFORMER “Die Apokalyptischen Reiter”
TITLE “All You Need Is Love”
FILE “Die Apokalyptischen Reiter – All You Need Is Love.flac” WAVE
TRACK 01 AUDIO
TITLE “Licked By The Tongues Of Pride”
PERFORMER “Die Apokalyptischen Reiter”
INDEX 01 00:00:00
TRACK 02 AUDIO
TITLE “Unter Der Asche”
PERFORMER “Die Apokalyptischen Reiter”
INDEX 01 03:35:42
TRACK 03 AUDIO
TITLE “Erhelle Meine Seele”
PERFORMER “Die Apokalyptischen Reiter”
INDEX 00 07:17:22
INDEX 01 07:18:65
TRACK 04 AUDIO
TITLE “Gone”
PERFORMER “Die Apokalyptischen Reiter”
INDEX 00 11:16:70
INDEX 01 11:18:37
TRACK 05 AUDIO
TITLE “Regret”
PERFORMER “Die Apokalyptischen Reiter”
INDEX 00 16:11:72
INDEX 01 16:13:17
TRACK 06 AUDIO
TITLE “Reitermania”
PERFORMER “Die Apokalyptischen Reiter”
INDEX 01 19:52:32
TRACK 07 AUDIO
TITLE “Hate”
PERFORMER “Die Apokalyptischen Reiter”
INDEX 00 22:47:65
INDEX 01 22:49:32
TRACK 08 AUDIO
TITLE “Peace Of Mind”
PERFORMER “Die Apokalyptischen Reiter”
INDEX 01 25:15:22
TRACK 09 AUDIO
TITLE “Geopfert”
PERFORMER “Die Apokalyptischen Reiter”
INDEX 01 28:10:17
TRACK 10 AUDIO
TITLE “Rausch”
PERFORMER “Die Apokalyptischen Reiter”
INDEX 00 31:37:37
INDEX 01 31:39:05
TRACK 11 AUDIO
TITLE “Die Schonheit Der Sklaverei”
PERFORMER “Die Apokalyptischen Reiter”
INDEX 00 35:19:60
INDEX 01 35:21:05
TRACK 12 AUDIO
TITLE “… Vom Ende Der Welt”
PERFORMER “Die Apokalyptischen Reiter”
INDEX 01 40:40:30


Leave a Reply

Your email address will not be published. Required fields are marked *

This site uses Akismet to reduce spam. Learn how your comment data is processed.