Depeche Mode – Violator




Artist: Depeche Mode
Year: 1990
Genre: Rock
Notes: Discogs
Add. Notes:
Cover incl.: Yes
Encoder: FLAC
Bitrate: ~900 kBit/s (44.1 kHz/16 Bit/s)
Log & Cue incl.: Yes
Size: 277,16 MB
Password: “slam” (without ” “)


All Downloads/Hosters are compatible

Download 1
Turbobit.net
KatFile.com
Rapidgator.net
Download 2
Turbobit.net
KatFile.com
Rapidgator.net

Tracklist:

1 - World In My Eyes - 4:26
2 - Sweetest Perfection - 4:41
3 - Personal Jesus - 4:54
4 - Halo - 4:28
5 - Waiting For The Night - 6:06
6 - Enjoy The Silence - 6:13
7 - Policy Of Truth - 4:52
8 - Blue Dress - 5:40
9 - Clean - 5:30

EAC-Log, CUE-Sheed & NFO:

Click to open spoiler
EAC extraction logfile from 10. January 2006, 19:18 for CD
Depeche Mode / Violator

Used drive : PLEXTOR DVDR PX-760A Adapter: 1 ID: 0
Read mode : Secure with NO C2, accurate stream, disable cache
Read offset correction : 30
Overread into Lead-In and Lead-Out : Yes

Used output format : C:\Programmi\EAC\eac095pb5\Encoders\FLAC\flac.exe (User Defined Encoder)
224 kBit/s
Additional command line options : -8 -V -T “artist=%a” -T “title=%t” -T “album=%g” -T “date=%y” -T “tracknumber=%n” -T “genre=%m” -T “comment=Exact Audio Copy 0.95 pb5 Secure Mode / FLAC q8 v. 1.1.2” %s

Other options :
Fill up missing offset samples with silence : Yes
Delete leading and trailing silent blocks : No
Installed external ASPI interface

Track 1
Filename H:\Temp\01 – World in my eyes.wav

Pre-gap length 0:00:02.44

Peak level 74.2 %
Track quality 99.9 %
Test CRC 9A6A3FE2
Copy CRC 9A6A3FE2
Copy OK

Track 2
Filename H:\Temp\02 – Sweetest perfection.wav

Peak level 73.9 %
Track quality 99.9 %
Test CRC 555AA3A3
Copy CRC 555AA3A3
Copy OK

Track 3
Filename H:\Temp\03 – Personal Jesus.wav

Pre-gap length 0:00:01.69

Peak level 75.2 %
Track quality 100.0 %
Test CRC 82B0B765
Copy CRC 82B0B765
Copy OK

Track 4
Filename H:\Temp\04 – Halo.wav

Peak level 80.4 %
Track quality 100.0 %
Test CRC 5718F86A
Copy CRC 5718F86A
Copy OK

Track 5
Filename H:\Temp\05 – Waiting for the night.wav

Pre-gap length 0:00:00.77

Peak level 64.5 %
Track quality 100.0 %
Test CRC 403A4407
Copy CRC 403A4407
Copy OK

Track 6
Filename H:\Temp\06 – Enjoy the silence.wav

Peak level 86.3 %
Track quality 100.0 %
Test CRC DA36E0F6
Copy CRC DA36E0F6
Copy OK

Track 7
Filename H:\Temp\07 – Policy of truth.wav

Peak level 76.6 %
Track quality 100.0 %
Test CRC 7619E47C
Copy CRC 7619E47C
Copy OK

Track 8
Filename H:\Temp\08 – Blue dress.wav

Pre-gap length 0:00:01.33

Peak level 74.4 %
Track quality 100.0 %
Test CRC BBDB1EE0
Copy CRC BBDB1EE0
Copy OK

Track 9
Filename H:\Temp\09 – Clean.wav

Peak level 76.1 %
Track quality 100.0 %
Test CRC B9E131A8
Copy CRC B9E131A8
Copy OK

No errors occured

End of status report

REM COMMENT “CUETools generated dummy CUE sheet”
FILE “01 – World in My Eyes.flac” WAVE
TRACK 01 AUDIO
INDEX 01 00:00:00
FILE “02 – Sweetest Perfection.flac” WAVE
TRACK 02 AUDIO
INDEX 01 00:00:00
FILE “03 – Personal Jesus.flac” WAVE
TRACK 03 AUDIO
INDEX 01 00:00:00
FILE “04 – Halo.flac” WAVE
TRACK 04 AUDIO
INDEX 01 00:00:00
FILE “05 – Waiting for the Night.flac” WAVE
TRACK 05 AUDIO
INDEX 01 00:00:00
FILE “06 – Enjoy the Silence.flac” WAVE
TRACK 06 AUDIO
INDEX 01 00:00:00
FILE “07 – Policy of Truth.flac” WAVE
TRACK 07 AUDIO
INDEX 01 00:00:00
FILE “08 – Blue Dress.flac” WAVE
TRACK 08 AUDIO
INDEX 01 00:00:00
FILE “09 – Clean.flac” WAVE
TRACK 09 AUDIO
INDEX 01 00:00:00


Leave a Reply

Your email address will not be published. Required fields are marked *

Enter the text from the image below
 

This site uses Akismet to reduce spam. Learn how your comment data is processed.