Depeche Mode – Ultra




Artist: Depeche Mode
Year: 1997
Genre: Rock
Notes: Discogs
Add. Notes:
Cover incl.: Yes
Encoder: FLAC
Bitrate: ~900 kBit/s (44.1 kHz/16 Bit/s)
Log & Cue incl.: Yes
Size: 381,86 MB
Password: “slam” (without ” “)


All Downloads/Hosters are compatible

Download 1
Turbobit.net
KatFile.com
Rapidgator.net
Download 2
Turbobit.net
KatFile.com
Rapidgator.net

Tracklist:

1 - Barrel Of A Gun - 5:35
2 - The Love Thieves - 6:34
3 - Home - 5:42
4 - It's No Good - 5:58
5 - Uselink - 2:21
6 - Useless - 5:12
7 - Sister Of Night - 6:04
8 - Jazz Thieves - 2:54
9 - Freestate - 6:44
10 - The Bottom Line - 4:26
11 - Insight - 6:26
12 - Junior Painkiller - 2:11

EAC-Log, CUE-Sheed & NFO:

Click to open spoiler
Exact Audio Copy V0.99 prebeta 4 from 23. January 2008

EAC extraction logfile from 23. March 2008, 0:45

Depeche Mode / Ultra

Used drive : ASUS DRW-1608P2S Adapter: 1 ID: 0

Read mode : Secure
Utilize accurate stream : Yes
Defeat audio cache : Yes
Make use of C2 pointers : No

Read offset correction : 48
Overread into Lead-In and Lead-Out : No
Fill up missing offset samples with silence : Yes
Delete leading and trailing silent blocks : No
Null samples used in CRC calculations : Yes
Used interface : Native Win32 interface for Win NT & 2000
Gap handling : Not detected, thus appended to previous track

Used output format : User Defined Encoder
Selected bitrate : 768 kBit/s
Quality : High
Add ID3 tag : No
Command line compressor : C:\Program Files (x86)\Exact Audio Copy\FLAC\FLAC.EXE
Additional command line options : -8 -V -T “ARTIST=%a” -T “TITLE=%t” -T “ALBUM=%g” -T “DATE=%y” -T “TRACKNUMBER=%n” -T “GENRE=%m” -T “COMMENT=EAC FLAC -8” %s

TOC of the extracted CD

Track | Start | Length | Start sector | End sector
———————————————————
1 | 0:00.32 | 5:35.38 | 32 | 25194
2 | 5:35.70 | 6:34.15 | 25195 | 54759
3 | 12:10.10 | 5:42.67 | 54760 | 80476
4 | 17:53.02 | 5:58.40 | 80477 | 107366
5 | 23:51.42 | 2:21.18 | 107367 | 117959
6 | 26:12.60 | 5:12.20 | 117960 | 141379
7 | 31:25.05 | 6:04.30 | 141380 | 168709
8 | 37:29.35 | 2:54.70 | 168710 | 181829
9 | 40:24.30 | 6:43.65 | 181830 | 212119
10 | 47:08.20 | 4:26.67 | 212120 | 232136
11 | 51:35.12 | 6:26.50 | 232137 | 261136
12 | 58:01.62 | 2:09.58 | 261137 | 270869

Track 1

Filename H:\Temp\01. Depeche Mode – Barrel of a Gun.wav

Peak level 100.0 %
Track quality 100.0 %
Test CRC 45202B15
Copy CRC 45202B15
Accurately ripped (confidence 91) [CB6DAE0D]
Copy OK

Track 2

Filename H:\Temp\02. Depeche Mode – The Love Thieves.wav

Peak level 100.0 %
Track quality 100.0 %
Test CRC 76487983
Copy CRC 76487983
Accurately ripped (confidence 95) [47A37296]
Copy OK

Track 3

Filename H:\Temp\03. Depeche Mode – Home.wav

Peak level 100.0 %
Track quality 100.0 %
Test CRC 3A915F4C
Copy CRC 3A915F4C
Accurately ripped (confidence 94) [37EA38AB]
Copy OK

Track 4

Filename H:\Temp\04. Depeche Mode – It’s No Good.wav

Peak level 100.0 %
Track quality 99.9 %
Test CRC 2DB650C5
Copy CRC 2DB650C5
Accurately ripped (confidence 93) [6A506781]
Copy OK

Track 5

Filename H:\Temp\05. Depeche Mode – Uselink.wav

Peak level 100.0 %
Track quality 100.0 %
Test CRC 766BE3D6
Copy CRC 766BE3D6
Accurately ripped (confidence 94) [08C5452E]
Copy OK

Track 6

Filename H:\Temp\06. Depeche Mode – Useless.wav

Peak level 100.0 %
Track quality 100.0 %
Test CRC 2D1807E0
Copy CRC 2D1807E0
Accurately ripped (confidence 91) [FCC74F7F]
Copy OK

Track 7

Filename H:\Temp\07. Depeche Mode – Sister of Night.wav

Peak level 100.0 %
Track quality 100.0 %
Test CRC F30B8ED2
Copy CRC F30B8ED2
Accurately ripped (confidence 93) [34166C0D]
Copy OK

Track 8

Filename H:\Temp\08. Depeche Mode – Jazz Thieves.wav

Peak level 100.0 %
Track quality 100.0 %
Test CRC EE34560C
Copy CRC EE34560C
Accurately ripped (confidence 94) [AD86E8CF]
Copy OK

Track 9

Filename H:\Temp\09. Depeche Mode – Freestate.wav

Peak level 100.0 %
Track quality 100.0 %
Test CRC 5F4033A9
Copy CRC 5F4033A9
Accurately ripped (confidence 93) [0ADFA6C8]
Copy OK

Track 10

Filename H:\Temp\10. Depeche Mode – The Bottom Line.wav

Peak level 100.0 %
Track quality 100.0 %
Test CRC 7A0DE363
Copy CRC 7A0DE363
Accurately ripped (confidence 95) [CB65483C]
Copy OK

Track 11

Filename H:\Temp\11. Depeche Mode – Insight.wav

Peak level 100.0 %
Track quality 100.0 %
Test CRC C658C3E7
Copy CRC C658C3E7
Accurately ripped (confidence 92) [7DAC938A]
Copy OK

Track 12

Filename H:\Temp\12. Depeche Mode – Junior Painkiller.wav

Peak level 48.8 %
Track quality 100.0 %
Test CRC 83CB41FC
Copy CRC 83CB41FC
Accurately ripped (confidence 91) [9DD69A86]
Copy OK

All tracks accurately ripped

No errors occurred

End of status report

REM COMMENT “CUETools generated dummy CUE sheet”
FILE “01 – Barrel of a Gun.flac” WAVE
TRACK 01 AUDIO
INDEX 01 00:00:00
FILE “02 – The Love Thieves.flac” WAVE
TRACK 02 AUDIO
INDEX 01 00:00:00
FILE “03 – Home.flac” WAVE
TRACK 03 AUDIO
INDEX 01 00:00:00
FILE “04 – It’s No Good.flac” WAVE
TRACK 04 AUDIO
INDEX 01 00:00:00
FILE “05 – Uselink.flac” WAVE
TRACK 05 AUDIO
INDEX 01 00:00:00
FILE “06 – Useless.flac” WAVE
TRACK 06 AUDIO
INDEX 01 00:00:00
FILE “07 – Sister of Night.flac” WAVE
TRACK 07 AUDIO
INDEX 01 00:00:00
FILE “08 – Jazz Thieves.flac” WAVE
TRACK 08 AUDIO
INDEX 01 00:00:00
FILE “09 – Freestate.flac” WAVE
TRACK 09 AUDIO
INDEX 01 00:00:00
FILE “10 – The Bottom Line.flac” WAVE
TRACK 10 AUDIO
INDEX 01 00:00:00
FILE “11 – Insight.flac” WAVE
TRACK 11 AUDIO
INDEX 01 00:00:00
FILE “12 – Junior Painkiller.flac” WAVE
TRACK 12 AUDIO
INDEX 01 00:00:00


Leave a Reply

Your email address will not be published. Required fields are marked *

This site uses Akismet to reduce spam. Learn how your comment data is processed.