Depeche Mode – Speak & Spell (Reissue)




Artist: Depeche Mode
Year: 1981/1988
Genre: Rock
Notes: Discogs
Add. Notes: Reissue
Cover incl.: Yes
Encoder: FLAC
Bitrate: ~800 kBit/s (44.1 kHz/16 Bit/s)
Log & Cue incl.: Yes
Size: 373,44 MB
Password: “slam” (without ” “)


All Downloads/Hosters are compatible

Download 1
Turbobit.net
KatFile.com
Rapidgator.net
Download 2
Turbobit.net
KatFile.com
Rapidgator.net

Tracklist:

1 - New Life - 3:46
2 - I Sometimes Wish I Was Dead - 
2:18
3 - Puppets - 3:57
4 - Boys Say Go! - 3:07
5 - Nodisco - 4:15
6 - What's Your Name? - 2:45
7 - Photographic - 4:44
8 - Tora! Tora! Tora! - 4:37
9 - Big Muff - 4:24
10 - Any Second Now (Voices) - 2:35
11 - Just Can't Get Enough - 3:44
Extra Tracks
12 - Dreaming Of Me - 4:03
13 - Ice Machine - 4:05
14 - Shout - 3:46
15 - Any Second Now - 3:08
16 - Just Can't Get Enough (Schizo 
Mix) - 6:44

EAC-Log, CUE-Sheed & NFO:

Click to open spoiler
EAC extraction logfile from 28. June 2006, 4:04 for CD
Depeche Mode / Speak & Spell

Used drive : PLEXTOR DVDR PX-760A Adapter: 1 ID: 0
Read mode : Secure with NO C2, accurate stream, disable cache
Read offset correction : 30
Overread into Lead-In and Lead-Out : No

Used output format : Internal WAV Routines
44.100 Hz; 16 Bit; Stereo

Other options :
Fill up missing offset samples with silence : Yes
Delete leading and trailing silent blocks : No
Installed external ASPI interface

Track 1
Filename H:\Temp\01 – New Life.wav

Pre-gap length 0:00:02.32

Peak level 100.0 %
Track quality 99.9 %
Test CRC BA69EB30
Copy CRC BA69EB30
Copy OK

Track 2
Filename H:\Temp\02 – I Sometimes Wish I Was Dead.wav

Pre-gap length 0:00:02.17

Peak level 99.9 %
Track quality 100.0 %
Test CRC 4BFDA2D6
Copy CRC 4BFDA2D6
Copy OK

Track 3
Filename H:\Temp\03 – Puppets.wav

Pre-gap length 0:00:01.55

Peak level 100.0 %
Track quality 100.0 %
Test CRC 92BCA162
Copy CRC 92BCA162
Copy OK

Track 4
Filename H:\Temp\04 – Boys Say Go!.wav

Pre-gap length 0:00:01.35

Peak level 100.0 %
Track quality 100.0 %
Test CRC 3720BE46
Copy CRC 3720BE46
Copy OK

Track 5
Filename H:\Temp\05 – No Disco.wav

Pre-gap length 0:00:01.55

Peak level 100.0 %
Track quality 100.0 %
Test CRC ABFEC0DB
Copy CRC ABFEC0DB
Copy OK

Track 6
Filename H:\Temp\06 – What’s Your Name.wav

Pre-gap length 0:00:02.53

Peak level 99.4 %
Track quality 100.0 %
Test CRC FDC35C63
Copy CRC FDC35C63
Copy OK

Track 7
Filename H:\Temp\07 – Photographic.wav

Pre-gap length 0:00:03.10

Peak level 100.0 %
Track quality 100.0 %
Test CRC C5158284
Copy CRC C5158284
Copy OK

Track 8
Filename H:\Temp\08 – Tora! Tora! Tora!.wav

Peak level 100.0 %
Track quality 100.0 %
Test CRC 0A09BDB9
Copy CRC 0A09BDB9
Copy OK

Track 9
Filename H:\Temp\09 – Big Muff.wav

Pre-gap length 0:00:02.42

Peak level 94.4 %
Track quality 100.0 %
Test CRC 07D65783
Copy CRC 07D65783
Copy OK

Track 10
Filename H:\Temp\10 – Any Second Now (Voices).wav

Pre-gap length 0:00:02.50

Peak level 79.7 %
Track quality 100.0 %
Test CRC C7EF048C
Copy CRC C7EF048C
Copy OK

Track 11
Filename H:\Temp\11 – Just Can’t Get Enough.wav

Peak level 100.0 %
Track quality 99.9 %
Test CRC 9D151632
Copy CRC 9D151632
Copy OK

Track 12
Filename H:\Temp\12 – Dreaming Of Me.wav

Pre-gap length 0:00:02.70

Peak level 100.0 %
Track quality 99.8 %
Test CRC 488C6335
Copy CRC 488C6335
Copy OK

Track 13
Filename H:\Temp\13 – Ice Machine.wav

Pre-gap length 0:00:01.17

Peak level 100.0 %
Track quality 100.0 %
Test CRC E4FC7BEA
Copy CRC E4FC7BEA
Copy OK

Track 14
Filename H:\Temp\14 – Shout.wav

Peak level 100.0 %
Track quality 100.0 %
Test CRC D98C1765
Copy CRC D98C1765
Copy OK

Track 15
Filename H:\Temp\15 – Any Second Now.wav

Pre-gap length 0:00:00.67

Peak level 100.0 %
Track quality 100.0 %
Test CRC 7D276023
Copy CRC 7D276023
Copy OK

Track 16
Filename H:\Temp\16 – Just Can’t Get Enough (Schizo Mix).wav

Pre-gap length 0:00:01.15

Peak level 100.0 %
Track quality 100.0 %
Test CRC 05FD20C1
Copy CRC 05FD20C1
Copy OK

No errors occured

End of status report

REM COMMENT “CUETools generated dummy CUE sheet”
FILE “01 – New Life.flac” WAVE
TRACK 01 AUDIO
INDEX 01 00:00:00
FILE “02 – I Sometimes Wish I Was Dead.flac” WAVE
TRACK 02 AUDIO
INDEX 01 00:00:00
FILE “03 – Puppets.flac” WAVE
TRACK 03 AUDIO
INDEX 01 00:00:00
FILE “04 – Boys Say Go!.flac” WAVE
TRACK 04 AUDIO
INDEX 01 00:00:00
FILE “05 – No Disco.flac” WAVE
TRACK 05 AUDIO
INDEX 01 00:00:00
FILE “06 – What’s Your Name.flac” WAVE
TRACK 06 AUDIO
INDEX 01 00:00:00
FILE “07 – Photographic.flac” WAVE
TRACK 07 AUDIO
INDEX 01 00:00:00
FILE “08 – Tora! Tora! Tora!.flac” WAVE
TRACK 08 AUDIO
INDEX 01 00:00:00
FILE “09 – Big Muff.flac” WAVE
TRACK 09 AUDIO
INDEX 01 00:00:00
FILE “10 – Any Second Now (Voices).flac” WAVE
TRACK 10 AUDIO
INDEX 01 00:00:00
FILE “11 – Just Can’t Get Enough.flac” WAVE
TRACK 11 AUDIO
INDEX 01 00:00:00
FILE “12 – Dreaming of Me.flac” WAVE
TRACK 12 AUDIO
INDEX 01 00:00:00
FILE “13 – Ice Machine.flac” WAVE
TRACK 13 AUDIO
INDEX 01 00:00:00
FILE “14 – Shout.flac” WAVE
TRACK 14 AUDIO
INDEX 01 00:00:00
FILE “15 – Any Second Now.flac” WAVE
TRACK 15 AUDIO
INDEX 01 00:00:00
FILE “16 – Just Can’t Get Enough (Schizo Mix).flac” WAVE
TRACK 16 AUDIO
INDEX 01 00:00:00


Leave a Reply

Your email address will not be published. Required fields are marked *

Enter the text from the image below
 

This site uses Akismet to reduce spam. Learn how your comment data is processed.