Depeche Mode – Songs Of Faith And Devotion




[Total: 0    Average: 0/5]

Artist: Depeche Mode
Year: 1993
Genre: Rock
Notes: Discogs
Add. Notes:
Cover incl.: Yes
Encoder: FLAC
Bitrate: ~1000 kBit/s (44.1 kHz/16 Bit/s)
Log & Cue incl.: Yes
Size: 314,45 MB
Password: “slam” (without ” “)


All Downloads/Hosters are compatible

Download 1
Share-online.biz
KatFile.com
Rapidgator.net
Download 2
Share-online.biz
KatFile.com
Rapidgator.net

Tracklist:

1 - I Feel You - 7:11
2 - Walking In My Shoes - 6:41
3 - Condemnation - 3:56
4 - Mercy In You - 4:20
5 - Judas - 5:01
6 - In Your Room - 6:47
7 - Get Right With Me - 3:11
8 - Rush - 4:35
9 - One Caress - 3:35
10 - Higher Love - 7:31

EAC-Log, CUE-Sheed & NFO:

Click to open spoiler
Exact Audio Copy V0.99 prebeta 4 from 23. January 2008

EAC extraction logfile from 16. March 2008, 0:58

Depeche Mode / Songs Of Faith And Devotion – Live

Used drive : ASUS DRW-1608P2S Adapter: 1 ID: 0

Read mode : Secure
Utilize accurate stream : Yes
Defeat audio cache : Yes
Make use of C2 pointers : No

Read offset correction : 48
Overread into Lead-In and Lead-Out : No
Fill up missing offset samples with silence : Yes
Delete leading and trailing silent blocks : No
Null samples used in CRC calculations : Yes
Used interface : Native Win32 interface for Win NT & 2000
Gap handling : Not detected, thus appended to previous track

Used output format : User Defined Encoder
Selected bitrate : 768 kBit/s
Quality : High
Add ID3 tag : No
Command line compressor : C:\Program Files (x86)\Exact Audio Copy\FLAC\FLAC.EXE
Additional command line options : -8 -V -T “ARTIST=%a” -T “TITLE=%t” -T “ALBUM=%g” -T “DATE=%y” -T “TRACKNUMBER=%n” -T “GENRE=%m” -T “COMMENT=EAC FLAC -8” %s

TOC of the extracted CD

Track | Start | Length | Start sector | End sector
———————————————————
1 | 0:00.32 | 7:11.50 | 32 | 32406
2 | 7:12.07 | 6:41.48 | 32407 | 62529
3 | 13:53.55 | 3:56.05 | 62530 | 80234
4 | 17:49.60 | 4:20.20 | 80235 | 99754
5 | 22:10.05 | 5:01.30 | 99755 | 122359
6 | 27:11.35 | 6:47.17 | 122360 | 152901
7 | 33:58.52 | 3:11.53 | 152902 | 167279
8 | 37:10.30 | 4:35.30 | 167280 | 187934
9 | 41:45.60 | 3:35.40 | 187935 | 204099
10 | 45:21.25 | 7:30.70 | 204100 | 237919

Track 1

Filename H:\Temp\01. Depeche Mode – I Feel You.wav

Peak level 100.0 %
Track quality 99.9 %
Test CRC 87A2582E
Copy CRC 87A2582E
Accurately ripped (confidence 24) [F4B9B729]
Copy OK

Track 2

Filename H:\Temp\02. Depeche Mode – Walking In My Shoes.wav

Peak level 100.0 %
Track quality 100.0 %
Test CRC DBDAD91F
Copy CRC DBDAD91F
Accurately ripped (confidence 24) [434B32E8]
Copy OK

Track 3

Filename H:\Temp\03. Depeche Mode – Condemnation.wav

Peak level 99.9 %
Track quality 100.0 %
Test CRC 9CF56365
Copy CRC 9CF56365
Accurately ripped (confidence 23) [5BC89727]
Copy OK

Track 4

Filename H:\Temp\04. Depeche Mode – Mercy In You.wav

Peak level 98.6 %
Track quality 100.0 %
Test CRC 80DA7B5C
Copy CRC 80DA7B5C
Accurately ripped (confidence 23) [E332A379]
Copy OK

Track 5

Filename H:\Temp\05. Depeche Mode – Judas.wav

Peak level 100.0 %
Track quality 100.0 %
Test CRC A212119B
Copy CRC A212119B
Accurately ripped (confidence 23) [F424867E]
Copy OK

Track 6

Filename H:\Temp\06. Depeche Mode – In Your Room.wav

Peak level 98.7 %
Track quality 100.0 %
Test CRC 513FAFD6
Copy CRC 513FAFD6
Accurately ripped (confidence 23) [612507CE]
Copy OK

Track 7

Filename H:\Temp\07. Depeche Mode – Get Right With Me.wav

Peak level 100.0 %
Track quality 100.0 %
Test CRC F535B46C
Copy CRC F535B46C
Accurately ripped (confidence 23) [A8D500AB]
Copy OK

Track 8

Filename H:\Temp\08. Depeche Mode – Rush.wav

Peak level 100.0 %
Track quality 100.0 %
Test CRC 876A2FA8
Copy CRC 876A2FA8
Accurately ripped (confidence 23) [C5F067EC]
Copy OK

Track 9

Filename H:\Temp\09. Depeche Mode – One Caress.wav

Peak level 99.9 %
Track quality 99.9 %
Test CRC 314005F4
Copy CRC 314005F4
Accurately ripped (confidence 23) [693D93F0]
Copy OK

Track 10

Filename H:\Temp\10. Depeche Mode – Higher Love.wav

Peak level 100.0 %
Track quality 99.9 %
Test CRC 2689A5E1
Copy CRC 2689A5E1
Accurately ripped (confidence 22) [A14997E4]
Copy OK

All tracks accurately ripped

No errors occurred

End of status report

REM COMMENT “CUETools generated dummy CUE sheet”
FILE “01 – I Feel You.flac” WAVE
TRACK 01 AUDIO
INDEX 01 00:00:00
FILE “02 – Walking in My Shoes.flac” WAVE
TRACK 02 AUDIO
INDEX 01 00:00:00
FILE “03 – Condemnation.flac” WAVE
TRACK 03 AUDIO
INDEX 01 00:00:00
FILE “04 – Mercy in You.flac” WAVE
TRACK 04 AUDIO
INDEX 01 00:00:00
FILE “05 – Judas.flac” WAVE
TRACK 05 AUDIO
INDEX 01 00:00:00
FILE “06 – In Your Room.flac” WAVE
TRACK 06 AUDIO
INDEX 01 00:00:00
FILE “07 – Get Right With Me.flac” WAVE
TRACK 07 AUDIO
INDEX 01 00:00:00
FILE “08 – Rush.flac” WAVE
TRACK 08 AUDIO
INDEX 01 00:00:00
FILE “09 – One Caress.flac” WAVE
TRACK 09 AUDIO
INDEX 01 00:00:00
FILE “10 – Higher Love.flac” WAVE
TRACK 10 AUDIO
INDEX 01 00:00:00


Spread the Download

Leave a Reply

Your email address will not be published. Required fields are marked *

Enter the text from the image below
 

This site uses Akismet to reduce spam. Learn how your comment data is processed.