Depeche Mode – Singles 7-12




Artist: Depeche Mode
Year: 2004
Genre: Rock
Notes: Discogs
Add. Notes:
Cover incl.: Yes
Encoder: FLAC
Bitrate: ~800 kBit/s (44.1 kHz/16 Bit/s)
Log & Cue incl.: Yes
Size: 892,68 MB
Password: “slam” (without ” “)


All Downloads/Hosters are compatible

Download 1
Turbobit.net
KatFile.com
Rapidgator.net
Download 2
Turbobit.net
KatFile.com
Rapidgator.net

Tracklist:

  Get The Balance Right!
1-1  Get The Balance Right!  3:13
1-2  The Great Outdoors!  5:03
1-3  Get The Balance Right! 
(Combination Mix) 
 7:58
1-4  Tora! Tora! Tora! (Live)  4:12
 Everything Counts
2-1  Everything Counts  3:59
2-2  Work Hard  4:22
2-3  Everything Counts (In Larger 
Amounts) 
 7:21
2-4  Work Hard (East End Remix)  
6:59
 Love In Itself
3-1  Love In Itself. 2  4:02
3-2  Fools  4:17
3-3  Love In Itself. 3  7:17
3-4  Fools (Bigger)  7:39
3-5  Love In Itself. 4  4:39
 People Are People
4-1  People Are People  3:46
4-2  In Your Memory  4:03
4-3  People Are People (Different 
Mix)  7:14
4-4  In Your Memory (Slick Mix)  8:13
 Master And Servant
5-1  Master And Servant  3:48
5-2  (Set Me Free) Remotivate Me  
4:13
5-3  Master And Servant (Slavery 
Whip Mix) 
 9:38
5-4  (Set Me Free) Remotivate Me 
(Release Mix) 
 8:49
5-5  Master And Servant (Voxless)  
4:00
 Blasphemous Rumours / Somebody
6-1  Blasphemous Rumours  6:23
6-2  Told You So (Live)  4:56
6-3  Somebody (Remix)  4:20
6-4  Everything Counts (Live)  5:53

EAC-Log, CUE-Sheed & NFO:

Click to open spoiler
Exact Audio Copy V0.99 prebeta 4 from 23. January 2008

EAC extraction logfile from 10. December 2008, 20:48

Depeche Mode / Master And Servant (CDBONG 6)

Used drive : Optiarc DVD RW AD-5170A Adapter: 0 ID: 1

Read mode : Secure
Utilize accurate stream : Yes
Defeat audio cache : Yes
Make use of C2 pointers : No

Read offset correction : 48
Overread into Lead-In and Lead-Out : No
Fill up missing offset samples with silence : Yes
Delete leading and trailing silent blocks : No
Null samples used in CRC calculations : Yes
Used interface : Native Win32 interface for Win NT & 2000
Gap handling : Appended to previous track

Used output format : User Defined Encoder
Selected bitrate : 192 kBit/s
Quality : High
Add ID3 tag : No
Command line compressor : C:\Program Files (x86)\FLAC\flac.exe
Additional command line options : -8 -V -T “ARTIST=%a” -T “TITLE=%t” -T “ALBUM=%g” -T “DATE=%y” -T “TRACKNUMBER=%n” -T “GENRE=%m” -T “COMMENT=EAC FLAC -8” %s

TOC of the extracted CD

Track | Start | Length | Start sector | End sector
———————————————————
1 | 0:00.32 | 3:48.30 | 32 | 17161
2 | 3:48.62 | 4:13.68 | 17162 | 36204
3 | 8:02.55 | 9:38.12 | 36205 | 79566
4 | 17:40.67 | 8:49.50 | 79567 | 119291
5 | 26:30.42 | 4:00.35 | 119292 | 137326

Track 1

Filename G:\Temp\01 – Master And Servant.wav

Pre-gap length 0:00:02.42

Peak level 100.0 %
Track quality 100.0 %
Test CRC 6012AA60
Copy CRC 6012AA60
Accurately ripped (confidence 8) [B8B9C4D4]
Copy OK

Track 2

Filename G:\Temp\02 – (Set Me Free) Remotivate Me.wav

Pre-gap length 0:00:02.16

Peak level 98.0 %
Track quality 100.0 %
Test CRC A1F07515
Copy CRC A1F07515
Accurately ripped (confidence 8) [F8B6E7BA]
Copy OK

Track 3

Filename G:\Temp\03 – Master And Servant (Slavery Whip Mix).wav

Pre-gap length 0:00:01.20

Peak level 98.4 %
Track quality 100.0 %
Test CRC 9733E205
Copy CRC 9733E205
Accurately ripped (confidence 8) [3D34C56E]
Copy OK

Track 4

Filename G:\Temp\04 – (Set Me Free) Remotivate Me (Release Mix).wav

Pre-gap length 0:00:00.56

Peak level 88.8 %
Track quality 99.9 %
Test CRC 060EEE38
Copy CRC 060EEE38
Accurately ripped (confidence 8) [C6BBD032]
Copy OK

Track 5

Filename G:\Temp\05 – Master And Servant (Voxless).wav

Pre-gap length 0:00:01.89

Peak level 88.2 %
Track quality 100.0 %
Test CRC 6FDC4B3D
Copy CRC 6FDC4B3D
Accurately ripped (confidence 5) [3A988C03]
Copy OK

All tracks accurately ripped

No errors occurred

End of status report

Exact Audio Copy V0.99 prebeta 4 from 23. January 2008

EAC extraction logfile from 10. December 2008, 20:02

Depeche Mode / Love In Itself (CDBONG 4)

Used drive : Optiarc DVD RW AD-5170A Adapter: 0 ID: 1

Read mode : Secure
Utilize accurate stream : Yes
Defeat audio cache : Yes
Make use of C2 pointers : No

Read offset correction : 48
Overread into Lead-In and Lead-Out : No
Fill up missing offset samples with silence : Yes
Delete leading and trailing silent blocks : No
Null samples used in CRC calculations : Yes
Used interface : Native Win32 interface for Win NT & 2000
Gap handling : Appended to previous track

Used output format : User Defined Encoder
Selected bitrate : 192 kBit/s
Quality : High
Add ID3 tag : No
Command line compressor : C:\Program Files (x86)\FLAC\flac.exe
Additional command line options : -8 -V -T “ARTIST=%a” -T “TITLE=%t” -T “ALBUM=%g” -T “DATE=%y” -T “TRACKNUMBER=%n” -T “GENRE=%m” -T “COMMENT=EAC FLAC -8” %s

TOC of the extracted CD

Track | Start | Length | Start sector | End sector
———————————————————
1 | 0:00.32 | 4:02.53 | 32 | 18234
2 | 4:03.10 | 4:17.37 | 18235 | 37546
3 | 8:20.47 | 7:17.33 | 37547 | 70354
4 | 15:38.05 | 7:39.32 | 70355 | 104811
5 | 23:17.37 | 4:39.30 | 104812 | 125766

Track 1

Filename G:\Temp\01 – Love In Itself 2.wav

Pre-gap length 0:00:02.42

Peak level 97.2 %
Track quality 100.0 %
Test CRC 87A7CA9A
Copy CRC 87A7CA9A
Accurately ripped (confidence 7) [EA632EED]
Copy OK

Track 2

Filename G:\Temp\02 – Fools.wav

Pre-gap length 0:00:01.40

Peak level 73.7 %
Track quality 100.0 %
Test CRC 2630B694
Copy CRC 2630B694
Accurately ripped (confidence 7) [D97E68E7]
Copy OK

Track 3

Filename G:\Temp\03 – Love In Itself 3.wav

Pre-gap length 0:00:01.76

Peak level 94.4 %
Track quality 100.0 %
Test CRC D4D47DA8
Copy CRC D4D47DA8
Accurately ripped (confidence 7) [1F84C3A8]
Copy OK

Track 4

Filename G:\Temp\04 – Fools (Bigger).wav

Pre-gap length 0:00:00.90

Peak level 84.9 %
Track quality 100.0 %
Test CRC 7C287B48
Copy CRC 7C287B48
Accurately ripped (confidence 7) [D49E51E3]
Copy OK

Track 5

Filename G:\Temp\05 – Love In Itself 4.wav

Peak level 67.1 %
Track quality 100.0 %
Test CRC 21BFDF54
Copy CRC 21BFDF54
Accurately ripped (confidence 8) [E0D15AB7]
Copy OK

All tracks accurately ripped

No errors occurred

End of status report

Exact Audio Copy V0.99 prebeta 4 from 23. January 2008

EAC extraction logfile from 10. December 2008, 19:31

Depeche Mode / Get The Balance Right (CDBONG 2)

Used drive : Optiarc DVD RW AD-5170A Adapter: 0 ID: 1

Read mode : Secure
Utilize accurate stream : Yes
Defeat audio cache : Yes
Make use of C2 pointers : No

Read offset correction : 48
Overread into Lead-In and Lead-Out : No
Fill up missing offset samples with silence : Yes
Delete leading and trailing silent blocks : No
Null samples used in CRC calculations : Yes
Used interface : Native Win32 interface for Win NT & 2000
Gap handling : Appended to previous track

Used output format : User Defined Encoder
Selected bitrate : 192 kBit/s
Quality : High
Add ID3 tag : No
Command line compressor : C:\Program Files (x86)\FLAC\flac.exe
Additional command line options : -8 -V -T “ARTIST=%a” -T “TITLE=%t” -T “ALBUM=%g” -T “DATE=%y” -T “TRACKNUMBER=%n” -T “GENRE=%m” -T “COMMENT=EAC FLAC -8” %s

TOC of the extracted CD

Track | Start | Length | Start sector | End sector
———————————————————
1 | 0:00.32 | 3:13.45 | 32 | 14551
2 | 3:14.02 | 5:03.00 | 14552 | 37276
3 | 8:17.02 | 7:58.45 | 37277 | 73171
4 | 16:15.47 | 4:12.48 | 73172 | 92119

Track 1

Filename G:\Temp\01 – Get The Balance Right.wav

Pre-gap length 0:00:02.42

Peak level 98.4 %
Track quality 99.9 %
Test CRC 92C0D9EC
Copy CRC 92C0D9EC
Accurately ripped (confidence 8) [1A0BCA1B]
Copy OK

Track 2

Filename G:\Temp\02 – The Great Outdoors.wav

Peak level 65.3 %
Track quality 100.0 %
Test CRC E3FD4B72
Copy CRC E3FD4B72
Accurately ripped (confidence 8) [D4905AF5]
Copy OK

Track 3

Filename G:\Temp\03 – Get The Balance Right (Combination Mix).wav

Pre-gap length 0:00:00.86

Peak level 100.0 %
Track quality 100.0 %
Test CRC C5CC6B9C
Copy CRC C5CC6B9C
Accurately ripped (confidence 8) [6CA58839]
Copy OK

Track 4

Filename G:\Temp\04 – Tora Tora Tora (Live).wav

Pre-gap length 0:00:00.80

Peak level 100.0 %
Track quality 100.0 %
Test CRC 0DF91104
Copy CRC 0DF91104
Accurately ripped (confidence 8) [7F603E8F]
Copy OK

All tracks accurately ripped

No errors occurred

End of status report

Exact Audio Copy V0.99 prebeta 4 from 23. January 2008

EAC extraction logfile from 10. December 2008, 20:27

Depeche Mode / People Are People (CDBONG 5)

Used drive : Optiarc DVD RW AD-5170A Adapter: 0 ID: 1

Read mode : Secure
Utilize accurate stream : Yes
Defeat audio cache : Yes
Make use of C2 pointers : No

Read offset correction : 48
Overread into Lead-In and Lead-Out : No
Fill up missing offset samples with silence : Yes
Delete leading and trailing silent blocks : No
Null samples used in CRC calculations : Yes
Used interface : Native Win32 interface for Win NT & 2000
Gap handling : Appended to previous track

Used output format : User Defined Encoder
Selected bitrate : 192 kBit/s
Quality : High
Add ID3 tag : No
Command line compressor : C:\Program Files (x86)\FLAC\flac.exe
Additional command line options : -8 -V -T “ARTIST=%a” -T “TITLE=%t” -T “ALBUM=%g” -T “DATE=%y” -T “TRACKNUMBER=%n” -T “GENRE=%m” -T “COMMENT=EAC FLAC -8” %s

TOC of the extracted CD

Track | Start | Length | Start sector | End sector
———————————————————
1 | 0:00.32 | 3:46.08 | 32 | 16989
2 | 3:46.40 | 4:03.27 | 16990 | 35241
3 | 7:49.67 | 7:14.05 | 35242 | 67796
4 | 15:03.72 | 8:13.48 | 67797 | 104819

Track 1

Filename G:\Temp\01 – People Are People.wav

Pre-gap length 0:00:02.42

Peak level 85.3 %
Track quality 99.9 %
Test CRC D98B7A72
Copy CRC D98B7A72
Accurately ripped (confidence 8) [3E939197]
Copy OK

Track 2

Filename G:\Temp\02 – In Your Memory.wav

Pre-gap length 0:00:01.84

Peak level 97.6 %
Track quality 100.0 %
Test CRC DAA407ED
Copy CRC DAA407ED
Accurately ripped (confidence 8) [022C97C8]
Copy OK

Track 3

Filename G:\Temp\03 – People Are People (Different Mix).wav

Pre-gap length 0:00:01.29

Peak level 92.3 %
Track quality 100.0 %
Test CRC 0598065A
Copy CRC 0598065A
Accurately ripped (confidence 8) [5650D422]
Copy OK

Track 4

Filename G:\Temp\04 – In Your Memory (Slick Mix).wav

Pre-gap length 0:00:01.00

Peak level 100.0 %
Track quality 100.0 %
Test CRC D2339FA8
Copy CRC D2339FA8
Accurately ripped (confidence 8) [483064FB]
Copy OK

All tracks accurately ripped

No errors occurred

End of status report

Exact Audio Copy V0.99 prebeta 4 from 23. January 2008

EAC extraction logfile from 10. December 2008, 21:08

Depeche Mode / Blasphemous Rumours (CDBONG 7)

Used drive : Optiarc DVD RW AD-5170A Adapter: 0 ID: 1

Read mode : Secure
Utilize accurate stream : Yes
Defeat audio cache : Yes
Make use of C2 pointers : No

Read offset correction : 48
Overread into Lead-In and Lead-Out : No
Fill up missing offset samples with silence : Yes
Delete leading and trailing silent blocks : No
Null samples used in CRC calculations : Yes
Used interface : Native Win32 interface for Win NT & 2000
Gap handling : Appended to previous track

Used output format : User Defined Encoder
Selected bitrate : 192 kBit/s
Quality : High
Add ID3 tag : No
Command line compressor : C:\Program Files (x86)\FLAC\flac.exe
Additional command line options : -8 -V -T “ARTIST=%a” -T “TITLE=%t” -T “ALBUM=%g” -T “DATE=%y” -T “TRACKNUMBER=%n” -T “GENRE=%m” -T “COMMENT=EAC FLAC -8” %s

TOC of the extracted CD

Track | Start | Length | Start sector | End sector
———————————————————
1 | 0:00.32 | 6:23.50 | 32 | 28806
2 | 6:24.07 | 4:56.25 | 28807 | 51031
3 | 11:20.32 | 4:20.63 | 51032 | 70594
4 | 15:41.20 | 5:53.55 | 70595 | 97124

Track 1

Filename G:\Temp\01 – Blasphemous Rumours.wav

Pre-gap length 0:00:02.42

Peak level 100.0 %
Track quality 100.0 %
Test CRC 18047954
Copy CRC 18047954
Accurately ripped (confidence 9) [56F3D2C1]
Copy OK

Track 2

Filename G:\Temp\02 – Told You So (Live).wav

Pre-gap length 0:00:00.40

Peak level 84.5 %
Track quality 100.0 %
Test CRC C2DE8B36
Copy CRC C2DE8B36
Accurately ripped (confidence 10) [CBEA175A]
Copy OK

Track 3

Filename G:\Temp\03 – Somebody (Remix).wav

Pre-gap length 0:00:00.33

Peak level 100.0 %
Track quality 100.0 %
Test CRC ACD68593
Copy CRC ACD68593
Accurately ripped (confidence 9) [B6C18772]
Copy OK

Track 4

Filename G:\Temp\04 – Everything Counts (Live).wav

Peak level 95.6 %
Track quality 100.0 %
Test CRC E684CF5A
Copy CRC E684CF5A
Accurately ripped (confidence 6) [868DDD34]
Copy OK

All tracks accurately ripped

No errors occurred

End of status report

Exact Audio Copy V0.99 prebeta 4 from 23. January 2008

EAC extraction logfile from 10. December 2008, 19:44

Depeche Mode / Everything Counts (CDBONG 3)

Used drive : Optiarc DVD RW AD-5170A Adapter: 0 ID: 1

Read mode : Secure
Utilize accurate stream : Yes
Defeat audio cache : Yes
Make use of C2 pointers : No

Read offset correction : 48
Overread into Lead-In and Lead-Out : No
Fill up missing offset samples with silence : Yes
Delete leading and trailing silent blocks : No
Null samples used in CRC calculations : Yes
Used interface : Native Win32 interface for Win NT & 2000
Gap handling : Appended to previous track

Used output format : User Defined Encoder
Selected bitrate : 192 kBit/s
Quality : High
Add ID3 tag : No
Command line compressor : C:\Program Files (x86)\FLAC\flac.exe
Additional command line options : -8 -V -T “ARTIST=%a” -T “TITLE=%t” -T “ALBUM=%g” -T “DATE=%y” -T “TRACKNUMBER=%n” -T “GENRE=%m” -T “COMMENT=EAC FLAC -8” %s

TOC of the extracted CD

Track | Start | Length | Start sector | End sector
———————————————————
1 | 0:00.00 | 3:59.57 | 0 | 17981
2 | 3:59.57 | 4:22.71 | 17982 | 37702
3 | 8:22.53 | 7:21.15 | 37703 | 70792
4 | 15:43.68 | 6:59.53 | 70793 | 102270

Track 1

Filename G:\Temp\01 – Everything Counts.wav

Pre-gap length 0:00:02.00

Peak level 100.0 %
Track quality 99.9 %
Test CRC B7B6C9DB
Copy CRC B7B6C9DB
Accurately ripped (confidence 8) [0195A03B]
Copy OK

Track 2

Filename G:\Temp\02 – Work Hard.wav

Peak level 86.6 %
Track quality 99.9 %
Test CRC D4C365B2
Copy CRC D4C365B2
Accurately ripped (confidence 8) [F7FE1B33]
Copy OK

Track 3

Filename G:\Temp\03 – Everything Counts (In Larger Amounts).wav

Peak level 93.6 %
Track quality 100.0 %
Test CRC D5C1D554
Copy CRC D5C1D554
Accurately ripped (confidence 8) [752CDED0]
Copy OK

Track 4

Filename G:\Temp\04 – Work Hard (East End Remix).wav

Peak level 100.0 %
Track quality 99.9 %
Test CRC 297586D8
Copy CRC 297586D8
Accurately ripped (confidence 8) [0652DD19]
Copy OK

All tracks accurately ripped

No errors occurred

End of status report

REM COMMENT “CUETools generated dummy CUE sheet”
FILE “01 – Master and Servant.flac” WAVE
TRACK 01 AUDIO
INDEX 01 00:00:00
FILE “02 – (Set Me Free) Remotivate Me.flac” WAVE
TRACK 02 AUDIO
INDEX 01 00:00:00
FILE “03 – Master and Servant (Slavery Whip Mix).flac” WAVE
TRACK 03 AUDIO
INDEX 01 00:00:00
FILE “04 – (Set Me Free) Remotivate Me (Release Mix).flac” WAVE
TRACK 04 AUDIO
INDEX 01 00:00:00
FILE “05 – Master and Servant (Voxless).flac” WAVE
TRACK 05 AUDIO
INDEX 01 00:00:00

REM COMMENT “CUETools generated dummy CUE sheet”
FILE “01 – Love in Itself 2.flac” WAVE
TRACK 01 AUDIO
INDEX 01 00:00:00
FILE “02 – Fools.flac” WAVE
TRACK 02 AUDIO
INDEX 01 00:00:00
FILE “03 – Love in Itself 3.flac” WAVE
TRACK 03 AUDIO
INDEX 01 00:00:00
FILE “04 – Fools (Bigger).flac” WAVE
TRACK 04 AUDIO
INDEX 01 00:00:00
FILE “05 – Love in Itself 4.flac” WAVE
TRACK 05 AUDIO
INDEX 01 00:00:00

REM COMMENT “CUETools generated dummy CUE sheet”
FILE “01 – Get the Balance Right!.flac” WAVE
TRACK 01 AUDIO
INDEX 01 00:00:00
FILE “02 – The Great Outdoors.flac” WAVE
TRACK 02 AUDIO
INDEX 01 00:00:00
FILE “03 – Get the Balance Right! (Combination Mix).flac” WAVE
TRACK 03 AUDIO
INDEX 01 00:00:00
FILE “04 – Tora! Tora! Tora! (Live).flac” WAVE
TRACK 04 AUDIO
INDEX 01 00:00:00

REM COMMENT “CUETools generated dummy CUE sheet”
FILE “01 – People Are People.flac” WAVE
TRACK 01 AUDIO
INDEX 01 00:00:00
FILE “02 – In Your Memory.flac” WAVE
TRACK 02 AUDIO
INDEX 01 00:00:00
FILE “03 – People Are People (Different Mix).flac” WAVE
TRACK 03 AUDIO
INDEX 01 00:00:00
FILE “04 – In Your Memory (Slick Mix).flac” WAVE
TRACK 04 AUDIO
INDEX 01 00:00:00
#REM COMMENT “CUETools generated dummy CUE sheet”
FILE “01 – Blasphemous Rumours.flac” WAVE
TRACK 01 AUDIO
INDEX 01 00:00:00
FILE “02 – Told You So (Live).flac” WAVE
TRACK 02 AUDIO
INDEX 01 00:00:00
FILE “03 – Somebody (Remix).flac” WAVE
TRACK 03 AUDIO
INDEX 01 00:00:00
FILE “04 – Everything Counts (Live).flac” WAVE
TRACK 04 AUDIO
INDEX 01 00:00:00

REM COMMENT “CUETools generated dummy CUE sheet”
FILE “01 – Everything Counts.flac” WAVE
TRACK 01 AUDIO
INDEX 01 00:00:00
FILE “02 – Work Hard.flac” WAVE
TRACK 02 AUDIO
INDEX 01 00:00:00
FILE “03 – Everything Counts (In Larger Amounts).flac” WAVE
TRACK 03 AUDIO
INDEX 01 00:00:00
FILE “04 – Work Hard (East End Remix).flac” WAVE
TRACK 04 AUDIO
INDEX 01 00:00:00


Leave a Reply

Your email address will not be published. Required fields are marked *

This site uses Akismet to reduce spam. Learn how your comment data is processed.