Depeche Mode – Singles 31-36




Artist: Depeche Mode
Year: 2004
Genre: Rock
Notes: Discogs
Add. Notes:
Cover incl.: Yes
Encoder: FLAC
Bitrate: ~1000 kBit/s (44.1 kHz/16 Bit/s)
Log & Cue incl.: Yes
Size: 2149,29 MB
Password: “slam” (without ” “)


All Downloads/Hosters are compatible

Download 1
Turbobit.net
KatFile.com
Rapidgator.net
Download 2
Turbobit.net
KatFile.com
Rapidgator.net

Tracklist:

Barrel Of A Gun
Barrel Of A Gun  5:32
Painkiller  7:29
Barrel Of A Gun (Underworld Soft 
Mix)  6:29
Barrel Of A Gun (One Inch Punch 
Mix)  5:27
Barrel Of A Gun (Underworld Hard 
Mix)  9:38
Barrel Of A Gun (United Mix)  6:36
Painkiller (Plastikman Mix)  8:40
Barrel Of A Gun (3.Phase Mix)  5:25
Barrel Of A Gun (One Inch Punch 
Mix) [Version 2]  5:29
It's No Good
It's No Good  6:00
Slowblow  5:25
It's No Good (Dom T's Bass Bounce 
Mix)  7:16
It's No Good (Speedy J Mix)  5:04
It's No Good (Hardfloor Mix)  6:43
Slowblow (Darren Price Mix)  6:29
It's No Good (Andrea Parker Mix)  
6:14
It's No Good (Motor Bass Mix)  3:48
Home
Home  5:47
Home (Air "Around The Golf" Remix)  
3:57
Home (LFO Meant To Be)  4:26
Home (The Noodles And The Damage 
Done)  6:37
Home (Jedi Knights Remix) (Drowning 
In Time)  7:02
Home (Grantby Mix)  4:39
Barrel Of A Gun (Live)  6:02
It's No Good (Live)  4:08
Useless
Useless (Remix)  4:54
Useless (Escape From Wherever: 
Parts 1 & 2!)  7:17
Useless (Cosmic Blues Mix)  6:57
Useless (CJ Bolland Ultrasonar Mix)  
6:02
Useless (The Kruder + Dorfmeister 
Session™)  9:09
Useless (CJ Bolland Funky Sub Mix)  
5:39
Useless (Air 20 Mix)  7:58
Useless (Live)  5:24
Barrel Of A Gun (Video)  5:27
It's No Good (Video)  4:22
Only When I Lose Myself
Only When I Lose Myself  4:36
Surrender  6:19
Headstar  4:24
Only When I Lose Myself (Subsonic 
Legacy Mix)  7:03
Only When I Lose Myself (Dan The 
Automator Mix) 
 4:57
Headstar (Luke Slater Remix)  5:48
Only When I Lose Myself (Gus Gus 
Long Play Mix) 
 11:21
Painkiller (Kill The Pain - DJ Shadow 
Vs. Depeche Mode) 
 6:34
Surrender (FC Catalan Out Of Reach 
Mix)  6:55
Only When I Lose Myself (Gus Gus 
Short Play Mix) 
 5:07
World In My Eyes (Safar Mix)  8:31
Dream On
Dream On (Single Version)  3:43
Easy Tiger (Full Version)  4:57
Easy Tiger (Bertrand Burgalat & A.S. 
Dragon Version) 
 4:53
Dream On (Bushwacka Tough Guy 
Mix)  6:08
Dream On (Dave Clarke Acoustic 
Version)  4:24
Dream On (Octagon Man Mix)  5:24
Dream On (Kid 606 Mix)  4:46
Dream On (Dave Clarke Remix)  5:14
Dream On (Bushwacka Blunt Mix)  
6:49

EAC-Log, CUE-Sheed & NFO:

Click to open spoiler
Exact Audio Copy V0.99 prebeta 4 from 23. January 2008

EAC extraction logfile from 2. December 2008, 11:30

Depeche Mode / Dream On (CD BONG 30X)

Used drive : Optiarc DVD RW AD-5170A Adapter: 0 ID: 1

Read mode : Secure
Utilize accurate stream : Yes
Defeat audio cache : Yes
Make use of C2 pointers : No

Read offset correction : 48
Overread into Lead-In and Lead-Out : No
Fill up missing offset samples with silence : Yes
Delete leading and trailing silent blocks : No
Null samples used in CRC calculations : Yes
Used interface : Native Win32 interface for Win NT & 2000
Gap handling : Appended to previous track

Used output format : User Defined Encoder
Selected bitrate : 192 kBit/s
Quality : High
Add ID3 tag : No
Command line compressor : C:\Program Files (x86)\FLAC\flac.exe
Additional command line options : -8 -V -T “ARTIST=%a” -T “TITLE=%t” -T “ALBUM=%g” -T “DATE=%y” -T “TRACKNUMBER=%n” -T “GENRE=%m” -T “COMMENT=EAC FLAC -8” %s

TOC of the extracted CD

Track | Start | Length | Start sector | End sector
———————————————————
1 | 0:00.00 | 3:43.48 | 0 | 16772
2 | 3:43.48 | 4:57.10 | 16773 | 39057
3 | 8:40.58 | 4:53.50 | 39058 | 61082
4 | 13:34.33 | 6:08.52 | 61083 | 88734
5 | 19:43.10 | 4:24.45 | 88735 | 108579
6 | 24:07.55 | 5:24.33 | 108580 | 132912
7 | 29:32.13 | 4:46.52 | 132913 | 154414
8 | 34:18.65 | 5:14.68 | 154415 | 178032
9 | 39:33.58 | 6:49.59 | 178033 | 208766

Track 1

Filename G:\Temp\01 – Dream On (Single Version).wav

Pre-gap length 0:00:02.00

Peak level 100.0 %
Track quality 100.0 %
Test CRC 7B1F7F97
Copy CRC 7B1F7F97
Accurately ripped (confidence 19) [86FEAABF]
Copy OK

Track 2

Filename G:\Temp\02 – Easy Tiger (Full Version).wav

Pre-gap length 0:00:03.29

Peak level 100.0 %
Track quality 100.0 %
Test CRC 00F2A8C8
Copy CRC 00F2A8C8
Accurately ripped (confidence 19) [9320F1EC]
Copy OK

Track 3

Filename G:\Temp\03 – Easy Tiger (Bertrand Burgalat AS Dragon Version).wav

Pre-gap length 0:00:02.80

Peak level 100.0 %
Track quality 100.0 %
Test CRC 4C6BA6CF
Copy CRC 4C6BA6CF
Accurately ripped (confidence 19) [353402A3]
Copy OK

Track 4

Filename G:\Temp\04 – Dream On (Bushwacka Tough Guy Mix).wav

Pre-gap length 0:00:01.50

Peak level 100.0 %
Track quality 100.0 %
Test CRC 3F02B8B6
Copy CRC 3F02B8B6
Accurately ripped (confidence 19) [F4F96859]
Copy OK

Track 5

Filename G:\Temp\05 – Dream On (Dave Clarke Acoustic Version).wav

Pre-gap length 0:00:01.42

Peak level 91.3 %
Track quality 99.9 %
Test CRC 7157DB7B
Copy CRC 7157DB7B
Accurately ripped (confidence 19) [2EF9E436]
Copy OK

Track 6

Filename G:\Temp\06 – Dream On (Octagon Man Mix).wav

Pre-gap length 0:00:01.82

Peak level 100.0 %
Track quality 99.9 %
Test CRC C8A18A81
Copy CRC C8A18A81
Accurately ripped (confidence 19) [79CEFAB8]
Copy OK

Track 7

Filename G:\Temp\07 – Dream On (Kid 606 Mix).wav

Pre-gap length 0:00:01.73

Peak level 100.0 %
Track quality 100.0 %
Test CRC FD443FA8
Copy CRC FD443FA8
Accurately ripped (confidence 19) [41A79EA2]
Copy OK

Track 8

Filename G:\Temp\08 – Dream On (Dave Clarke Remix).wav

Pre-gap length 0:00:02.26

Peak level 100.0 %
Track quality 100.0 %
Test CRC EE4C4204
Copy CRC EE4C4204
Accurately ripped (confidence 19) [3B46EEA2]
Copy OK

Track 9

Filename G:\Temp\09 – Dream On (Bushwacka Blunt Mix).wav

Pre-gap length 0:00:02.33

Peak level 100.0 %
Track quality 99.9 %
Test CRC 1D21CB72
Copy CRC 1D21CB72
Accurately ripped (confidence 19) [748C32AD]
Copy OK

All tracks accurately ripped

No errors occurred

End of status report

Exact Audio Copy V0.99 prebeta 4 from 23. January 2008

EAC extraction logfile from 2. December 2008, 12:50

Depeche Mode / Barrel Of A Gun (CD BONG 25X)

Used drive : Optiarc DVD RW AD-5170A Adapter: 0 ID: 1

Read mode : Secure
Utilize accurate stream : Yes
Defeat audio cache : Yes
Make use of C2 pointers : No

Read offset correction : 48
Overread into Lead-In and Lead-Out : No
Fill up missing offset samples with silence : Yes
Delete leading and trailing silent blocks : No
Null samples used in CRC calculations : Yes
Used interface : Native Win32 interface for Win NT & 2000
Gap handling : Appended to previous track

Used output format : User Defined Encoder
Selected bitrate : 192 kBit/s
Quality : High
Add ID3 tag : No
Command line compressor : C:\Program Files (x86)\FLAC\flac.exe
Additional command line options : -8 -V -T “ARTIST=%a” -T “TITLE=%t” -T “ALBUM=%g” -T “DATE=%y” -T “TRACKNUMBER=%n” -T “GENRE=%m” -T “COMMENT=EAC FLAC -8” %s

TOC of the extracted CD

Track | Start | Length | Start sector | End sector
———————————————————
1 | 0:00.00 | 5:32.23 | 0 | 24922
2 | 5:32.23 | 7:29.38 | 24923 | 58635
3 | 13:01.61 | 6:29.00 | 58636 | 87810
4 | 19:30.61 | 5:27.50 | 87811 | 112385
5 | 24:58.36 | 9:38.00 | 112386 | 155735
6 | 34:36.36 | 6:36.35 | 155736 | 185470
7 | 41:12.71 | 8:40.22 | 185471 | 224492
8 | 49:53.18 | 5:25.50 | 224493 | 248917
9 | 55:18.68 | 5:29.37 | 248918 | 273629

Track 1

Filename G:\Temp\01 – Barrel Of A Gun.wav

Pre-gap length 0:00:02.00

Peak level 100.0 %
Track quality 100.0 %
Test CRC 61854CB3
Copy CRC 61854CB3
Accurately ripped (confidence 20) [95DA0B06]
Copy OK

Track 2

Filename G:\Temp\02 – Painkiller.wav

Pre-gap length 0:00:02.24

Peak level 100.0 %
Track quality 100.0 %
Test CRC E6B8C7D7
Copy CRC E6B8C7D7
Accurately ripped (confidence 20) [DE996501]
Copy OK

Track 3

Filename G:\Temp\03 – Barrel Of A Gun (Underworld Soft Mix).wav

Pre-gap length 0:00:01.50

Peak level 100.0 %
Track quality 100.0 %
Test CRC 0F497172
Copy CRC 0F497172
Accurately ripped (confidence 20) [4D45C8BF]
Copy OK

Track 4

Filename G:\Temp\04 – Barrel Of A Gun (One Inch Punch Mix).wav

Pre-gap length 0:00:01.93

Peak level 100.0 %
Track quality 100.0 %
Test CRC E9A2FEB7
Copy CRC E9A2FEB7
Accurately ripped (confidence 20) [F46CF48E]
Copy OK

Track 5

Filename G:\Temp\05 – Barrel Of A Gun (Underworld Hard Mix).wav

Pre-gap length 0:00:02.76

Peak level 100.0 %
Track quality 100.0 %
Test CRC 9E869CFD
Copy CRC 9E869CFD
Accurately ripped (confidence 20) [EF087AE1]
Copy OK

Track 6

Filename G:\Temp\06 – Barrel Of A Gun (United Mix).wav

Pre-gap length 0:00:01.54

Peak level 100.0 %
Track quality 99.9 %
Test CRC 09B3DD29
Copy CRC 09B3DD29
Accurately ripped (confidence 20) [6C9508F9]
Copy OK

Track 7

Filename G:\Temp\07 – Painkiller (Plastikman Mix).wav

Pre-gap length 0:00:02.57

Peak level 100.0 %
Track quality 100.0 %
Test CRC 3EAF93C7
Copy CRC 3EAF93C7
Accurately ripped (confidence 20) [E64EEE18]
Copy OK

Track 8

Filename G:\Temp\08 – Barrel Of A Gun (3 Phase Mix).wav

Pre-gap length 0:00:01.64

Peak level 100.0 %
Track quality 100.0 %
Test CRC 071C613A
Copy CRC 071C613A
Accurately ripped (confidence 20) [8042F4DE]
Copy OK

Track 9

Filename G:\Temp\09 – Barrel Of A Gun (One Inch Punch Mix Version 2).wav

Pre-gap length 0:00:02.16

Peak level 100.0 %
Track quality 100.0 %
Test CRC 15BD7E82
Copy CRC 15BD7E82
Accurately ripped (confidence 20) [FFA3584A]
Copy OK

All tracks accurately ripped

No errors occurred

End of status report

Exact Audio Copy V0.99 prebeta 4 from 23. January 2008

EAC extraction logfile from 2. December 2008, 12:16

Depeche Mode / Home (CD BONG 27X)

Used drive : Optiarc DVD RW AD-5170A Adapter: 0 ID: 1

Read mode : Secure
Utilize accurate stream : Yes
Defeat audio cache : Yes
Make use of C2 pointers : No

Read offset correction : 48
Overread into Lead-In and Lead-Out : No
Fill up missing offset samples with silence : Yes
Delete leading and trailing silent blocks : No
Null samples used in CRC calculations : Yes
Used interface : Native Win32 interface for Win NT & 2000
Gap handling : Appended to previous track

Used output format : User Defined Encoder
Selected bitrate : 192 kBit/s
Quality : High
Add ID3 tag : No
Command line compressor : C:\Program Files (x86)\FLAC\flac.exe
Additional command line options : -8 -V -T “ARTIST=%a” -T “TITLE=%t” -T “ALBUM=%g” -T “DATE=%y” -T “TRACKNUMBER=%n” -T “GENRE=%m” -T “COMMENT=EAC FLAC -8” %s

TOC of the extracted CD

Track | Start | Length | Start sector | End sector
———————————————————
1 | 0:00.00 | 5:47.33 | 0 | 26057
2 | 5:47.33 | 3:57.08 | 26058 | 43840
3 | 9:44.41 | 4:26.07 | 43841 | 63797
4 | 14:10.48 | 6:37.20 | 63798 | 93592
5 | 20:47.68 | 7:02.70 | 93593 | 125312
6 | 27:50.63 | 4:39.35 | 125313 | 146272
7 | 32:30.23 | 6:02.40 | 146273 | 173462
8 | 38:32.63 | 4:08.02 | 173463 | 192064

Track 1

Filename G:\Temp\01 – Home (Single Version).wav

Pre-gap length 0:00:02.00

Peak level 100.0 %
Track quality 100.0 %
Test CRC 45974ACB
Copy CRC 45974ACB
Accurately ripped (confidence 15) [F21E09B1]
Copy OK

Track 2

Filename G:\Temp\02 – Home (Air Around the Golf Remix).wav

Pre-gap length 0:00:00.30

Peak level 100.0 %
Track quality 99.9 %
Test CRC 2D744F10
Copy CRC 2D744F10
Accurately ripped (confidence 16) [ED5DE6CC]
Copy OK

Track 3

Filename G:\Temp\03 – Home (LFO Meant To Be).wav

Pre-gap length 0:00:01.50

Peak level 100.0 %
Track quality 100.0 %
Test CRC 46BEBB13
Copy CRC 46BEBB13
Accurately ripped (confidence 15) [E78B7DB6]
Copy OK

Track 4

Filename G:\Temp\04 – Home (The Noodles And The Damage Done).wav

Pre-gap length 0:00:00.97

Peak level 100.0 %
Track quality 100.0 %
Test CRC 69AC9D21
Copy CRC 69AC9D21
Accurately ripped (confidence 13) [A97657DC]
Copy OK

Track 5

Filename G:\Temp\05 – Home (Jedi Knights Remix Drowning In Time).wav

Pre-gap length 0:00:01.21

Peak level 100.0 %
Track quality 100.0 %
Test CRC F24BE395
Copy CRC F24BE395
Accurately ripped (confidence 16) [E950B6C6]
Copy OK

Track 6

Filename G:\Temp\06 – Home (Grantby Mix).wav

Pre-gap length 0:00:01.64

Peak level 100.0 %
Track quality 100.0 %
Test CRC B4A12128
Copy CRC B4A12128
Accurately ripped (confidence 16) [D7D26B89]
Copy OK

Track 7

Filename G:\Temp\07 – Barrel Of A Gun (Live).wav

Pre-gap length 0:00:02.04

Peak level 100.0 %
Track quality 100.0 %
Test CRC E389B03E
Copy CRC E389B03E
Accurately ripped (confidence 15) [2BDD92DD]
Copy OK

Track 8

Filename G:\Temp\08 – It’s No Good (Live).wav

Pre-gap length 0:00:01.90

Peak level 100.0 %
Track quality 100.0 %
Test CRC 931E7EB0
Copy CRC 931E7EB0
Accurately ripped (confidence 15) [37A04535]
Copy OK

All tracks accurately ripped

No errors occurred

End of status report

Exact Audio Copy V0.99 prebeta 4 from 23. January 2008

EAC extraction logfile from 2. December 2008, 10:58

Depeche Mode / Only When I Lose Myself (CD BONG 29X)

Used drive : Optiarc DVD RW AD-5170A Adapter: 0 ID: 1

Read mode : Secure
Utilize accurate stream : Yes
Defeat audio cache : Yes
Make use of C2 pointers : No

Read offset correction : 48
Overread into Lead-In and Lead-Out : No
Fill up missing offset samples with silence : Yes
Delete leading and trailing silent blocks : No
Null samples used in CRC calculations : Yes
Used interface : Native Win32 interface for Win NT & 2000
Gap handling : Appended to previous track

Used output format : User Defined Encoder
Selected bitrate : 192 kBit/s
Quality : High
Add ID3 tag : No
Command line compressor : C:\Program Files (x86)\FLAC\flac.exe
Additional command line options : -8 -V -T “ARTIST=%a” -T “TITLE=%t” -T “ALBUM=%g” -T “DATE=%y” -T “TRACKNUMBER=%n” -T “GENRE=%m” -T “COMMENT=EAC FLAC -8” %s

TOC of the extracted CD

Track | Start | Length | Start sector | End sector
———————————————————
1 | 0:00.00 | 4:36.25 | 0 | 20724
2 | 4:36.25 | 6:19.70 | 20725 | 49219
3 | 10:56.20 | 4:24.43 | 49220 | 69062
4 | 15:20.63 | 7:03.00 | 69063 | 100787
5 | 22:23.63 | 4:57.72 | 100788 | 123134
6 | 27:21.60 | 5:48.30 | 123135 | 149264
7 | 33:10.15 | 11:21.50 | 149265 | 200389
8 | 44:31.65 | 6:34.13 | 200390 | 229952
9 | 51:06.03 | 6:55.27 | 229953 | 261104
10 | 58:01.30 | 5:07.08 | 261105 | 284137
11 | 63:08.38 | 8:31.09 | 284138 | 322471

Track 1

Filename G:\Temp\01 – Only When I Lose Myself.wav

Pre-gap length 0:00:02.00

Peak level 100.0 %
Track quality 100.0 %
Test CRC 31248558
Copy CRC 31248558
Accurately ripped (confidence 19) [FE80FC01]
Copy OK

Track 2

Filename G:\Temp\02 – Surrender.wav

Pre-gap length 0:00:02.49

Peak level 100.0 %
Track quality 100.0 %
Test CRC D3CCD544
Copy CRC D3CCD544
Accurately ripped (confidence 19) [23A96CA3]
Copy OK

Track 3

Filename G:\Temp\03 – Headstar.wav

Pre-gap length 0:00:02.33

Peak level 100.0 %
Track quality 100.0 %
Test CRC E5400C69
Copy CRC E5400C69
Accurately ripped (confidence 19) [097EC822]
Copy OK

Track 4

Filename G:\Temp\04 – Only When I Lose Myself (Subsonic Legacy Mix).wav

Pre-gap length 0:00:01.60

Peak level 100.0 %
Track quality 100.0 %
Test CRC 4C60E5C8
Copy CRC 4C60E5C8
Accurately ripped (confidence 19) [9CF2587F]
Copy OK

Track 5

Filename G:\Temp\05 – Only When I Lose Myself (Dan The Automator Mix).wav

Pre-gap length 0:00:02.50

Peak level 100.0 %
Track quality 100.0 %
Test CRC 4A3C2FC3
Copy CRC 4A3C2FC3
Accurately ripped (confidence 19) [DF5B2753]
Copy OK

Track 6

Filename G:\Temp\06 – Headstar (Luke Slater Remix).wav

Pre-gap length 0:00:01.66

Peak level 100.0 %
Track quality 100.0 %
Test CRC D6B18721
Copy CRC D6B18721
Accurately ripped (confidence 19) [867E6669]
Copy OK

Track 7

Filename G:\Temp\07 – Only When I Lose Myself (Gus Gus Long Play Mix).wav

Pre-gap length 0:00:01.76

Peak level 100.0 %
Track quality 100.0 %
Test CRC 026FD79C
Copy CRC 026FD79C
Accurately ripped (confidence 19) [B1CEA9A8]
Copy OK

Track 8

Filename G:\Temp\08 – Painkiller (Kill The Pain DJ Shadow vs Depeche Mode).wav

Pre-gap length 0:00:02.89

Peak level 100.0 %
Track quality 99.9 %
Test CRC C01E3EEA
Copy CRC C01E3EEA
Accurately ripped (confidence 19) [A5668DD1]
Copy OK

Track 9

Filename G:\Temp\09 – Surrender (FC Catalan Out Of Reach Mix).wav

Pre-gap length 0:00:02.84

Peak level 100.0 %
Track quality 100.0 %
Test CRC BA62F237
Copy CRC BA62F237
Accurately ripped (confidence 19) [E984F8EB]
Copy OK

Track 10

Filename G:\Temp\10 – Only When I Lose Myself (Gus Gus Short Play Mix).wav

Pre-gap length 0:00:02.33

Peak level 100.0 %
Track quality 99.9 %
Test CRC 8AA60F99
Copy CRC 8AA60F99
Accurately ripped (confidence 19) [2F47D1F7]
Copy OK

Track 11

Filename G:\Temp\11 – World In My Eyes (Safar Mix).wav

Pre-gap length 0:00:02.44

Peak level 100.0 %
Track quality 100.0 %
Test CRC 9244CEF3
Copy CRC 9244CEF3
Accurately ripped (confidence 19) [65A48A12]
Copy OK

All tracks accurately ripped

No errors occurred

End of status report

Exact Audio Copy V0.99 prebeta 4 from 23. January 2008

EAC extraction logfile from 1. December 2008, 21:14

Depeche Mode / Useless (CD BONG 28X)

Used drive : Optiarc DVD RW AD-5170A Adapter: 0 ID: 1

Read mode : Secure
Utilize accurate stream : Yes
Defeat audio cache : Yes
Make use of C2 pointers : No

Read offset correction : 48
Overread into Lead-In and Lead-Out : No
Fill up missing offset samples with silence : Yes
Delete leading and trailing silent blocks : No
Null samples used in CRC calculations : Yes
Used interface : Native Win32 interface for Win NT & 2000
Gap handling : Appended to previous track

Used output format : User Defined Encoder
Selected bitrate : 192 kBit/s
Quality : High
Add ID3 tag : No
Command line compressor : C:\Program Files (x86)\FLAC\flac.exe
Additional command line options : -8 -V -T “ARTIST=%a” -T “TITLE=%t” -T “ALBUM=%g” -T “DATE=%y” -T “TRACKNUMBER=%n” -T “GENRE=%m” -T “COMMENT=EAC FLAC -8” %s

TOC of the extracted CD

Track | Start | Length | Start sector | End sector
———————————————————
1 | 0:00.00 | 4:54.21 | 0 | 22070
2 | 4:54.21 | 7:17.26 | 22071 | 54871
3 | 12:11.47 | 6:57.55 | 54872 | 86201
4 | 19:09.27 | 6:02.05 | 86202 | 113356
5 | 25:11.32 | 9:09.30 | 113357 | 154561
6 | 34:20.62 | 5:39.02 | 154562 | 179988
7 | 39:59.64 | 7:58.59 | 179989 | 215897
8 | 47:58.48 | 5:22.03 | 215898 | 240050
9 | 55:52.51 | 13:35.24 | 251451 | 312599

Track 1

Filename G:\Temp\01 – Useless (Remix).wav

Pre-gap length 0:00:02.00

Peak level 100.0 %
Track quality 100.0 %
Test CRC BB64D263
Copy CRC BB64D263
Accurately ripped (confidence 18) [5FCACC53]
Copy OK

Track 2

Filename G:\Temp\02 – Useless (Escape From Wherever Parts 1 & 2).wav

Pre-gap length 0:00:02.10

Peak level 100.0 %
Track quality 99.9 %
Test CRC 2FBB2BB3
Copy CRC 2FBB2BB3
Accurately ripped (confidence 17) [D1A43F96]
Copy OK

Track 3

Filename G:\Temp\03 – Useless (Cosmic Blues Mix).wav

Pre-gap length 0:00:02.53

Peak level 100.0 %
Track quality 99.9 %
Test CRC 4B52F85E
Copy CRC 4B52F85E
Accurately ripped (confidence 17) [58270FEE]
Copy OK

Track 4

Filename G:\Temp\04 – Useless (CJ Bolland Ultrasonar Mix).wav

Pre-gap length 0:00:02.73

Peak level 100.0 %
Track quality 100.0 %
Test CRC 4E70FE9C
Copy CRC 4E70FE9C
Accurately ripped (confidence 16) [7BDEBF66]
Copy OK

Track 5

Filename G:\Temp\05 – Useless (The Kruder & Dorfmeister Session).wav

Pre-gap length 0:00:01.89

Peak level 99.4 %
Track quality 100.0 %
Test CRC 3BCA698B
Copy CRC 3BCA698B
Accurately ripped (confidence 16) [E63B2A89]
Copy OK

Track 6

Filename G:\Temp\06 – Useless (CJ Bolland Funky Sub Mix).wav

Pre-gap length 0:00:02.37

Peak level 100.0 %
Track quality 99.9 %
Test CRC 027747BA
Copy CRC 027747BA
Accurately ripped (confidence 17) [1E0E824C]
Copy OK

Track 7

Filename G:\Temp\07 – Useless (Air 20 Mix).wav

Pre-gap length 0:00:00.16

Peak level 100.0 %
Track quality 99.9 %
Test CRC 9646EACB
Copy CRC 9646EACB
Accurately ripped (confidence 17) [9FD2F11D]
Copy OK

Track 8

Filename G:\Temp\08 – Useless (Live).wav

Pre-gap length 0:00:01.33

Peak level 100.0 %
Track quality 100.0 %
Test CRC 5849858A
Copy CRC 5849858A
Accurately ripped (confidence 16) [97251010]
Copy OK

All tracks accurately ripped

No errors occurred

End of status report

Exact Audio Copy V0.99 prebeta 4 from 23. January 2008

EAC extraction logfile from 2. December 2008, 11:52

Depeche Mode / It’s No Good (CD BONG 26X)

Used drive : Optiarc DVD RW AD-5170A Adapter: 0 ID: 1

Read mode : Secure
Utilize accurate stream : Yes
Defeat audio cache : Yes
Make use of C2 pointers : No

Read offset correction : 48
Overread into Lead-In and Lead-Out : No
Fill up missing offset samples with silence : Yes
Delete leading and trailing silent blocks : No
Null samples used in CRC calculations : Yes
Used interface : Native Win32 interface for Win NT & 2000
Gap handling : Appended to previous track

Used output format : User Defined Encoder
Selected bitrate : 192 kBit/s
Quality : High
Add ID3 tag : No
Command line compressor : C:\Program Files (x86)\FLAC\flac.exe
Additional command line options : -8 -V -T “ARTIST=%a” -T “TITLE=%t” -T “ALBUM=%g” -T “DATE=%y” -T “TRACKNUMBER=%n” -T “GENRE=%m” -T “COMMENT=EAC FLAC -8” %s

TOC of the extracted CD

Track | Start | Length | Start sector | End sector
———————————————————
1 | 0:00.00 | 6:00.68 | 0 | 27067
2 | 6:00.68 | 5:25.42 | 27068 | 51484
3 | 11:26.35 | 7:16.68 | 51485 | 84252
4 | 18:43.28 | 5:04.57 | 84253 | 107109
5 | 23:48.10 | 6:43.15 | 107110 | 137349
6 | 30:31.25 | 6:29.15 | 137350 | 166539
7 | 37:00.40 | 6:14.38 | 166540 | 194627
8 | 43:15.03 | 3:48.54 | 194628 | 211781

Track 1

Filename G:\Temp\01 – It’s No Good (Album Version).wav

Pre-gap length 0:00:02.00

Peak level 100.0 %
Track quality 100.0 %
Test CRC D35D3CFE
Copy CRC D35D3CFE
Accurately ripped (confidence 16) [ECEFE983]
Copy OK

Track 2

Filename G:\Temp\02 – Slowblow (Single Version).wav

Pre-gap length 0:00:02.53

Peak level 100.0 %
Track quality 100.0 %
Test CRC E5BEB608
Copy CRC E5BEB608
Accurately ripped (confidence 19) [B5C78811]
Copy OK

Track 3

Filename G:\Temp\03 – It’s No Good (Dom T’s Bass Bounce Mix).wav

Pre-gap length 0:00:01.29

Peak level 100.0 %
Track quality 100.0 %
Test CRC 777EF119
Copy CRC 777EF119
Accurately ripped (confidence 18) [2614887D]
Copy OK

Track 4

Filename G:\Temp\04 – It’s No Good (Speedy J Mix).wav

Pre-gap length 0:00:02.53

Peak level 100.0 %
Track quality 100.0 %
Test CRC 4600C930
Copy CRC 4600C930
Accurately ripped (confidence 19) [C9D4A8A3]
Copy OK

Track 5

Filename G:\Temp\05 – It’s No Good (Hardfloor Mix).wav

Pre-gap length 0:00:02.33

Peak level 100.0 %
Track quality 100.0 %
Test CRC 455CE419
Copy CRC 455CE419
Accurately ripped (confidence 17) [06A6B9A0]
Copy OK

Track 6

Filename G:\Temp\06 – Slowblow (Darren Price Mix).wav

Pre-gap length 0:00:02.53

Peak level 100.0 %
Track quality 99.9 %
Test CRC F484C0D7
Copy CRC F484C0D7
Accurately ripped (confidence 18) [FB3F99D2]
Copy OK

Track 7

Filename G:\Temp\07 – It’s No Good (Andrea Parker Mix).wav

Pre-gap length 0:00:02.56

Peak level 100.0 %
Track quality 100.0 %
Test CRC 0DCC5782
Copy CRC 0DCC5782
Accurately ripped (confidence 18) [A759ADE2]
Copy OK

Track 8

Filename G:\Temp\08 – It’s No Good (Motor Bass Mix).wav

Pre-gap length 0:00:02.66

Peak level 100.0 %
Track quality 100.0 %
Test CRC AA6FB059
Copy CRC AA6FB059
Accurately ripped (confidence 17) [7590545F]
Copy OK

All tracks accurately ripped

No errors occurred

End of status report

REM COMMENT “CUETools generated dummy CUE sheet”
FILE “01 – Dream On (Single Version).flac” WAVE
TRACK 01 AUDIO
INDEX 01 00:00:00
FILE “02 – Easy Tiger (Full Version).flac” WAVE
TRACK 02 AUDIO
INDEX 01 00:00:00
FILE “03 – Easy Tiger (Bertrand Burgalat & A.S. Dragon Version).flac” WAVE
TRACK 03 AUDIO
INDEX 01 00:00:00
FILE “04 – Dream On (Bushwacka Tough Guy Mix).flac” WAVE
TRACK 04 AUDIO
INDEX 01 00:00:00
FILE “05 – Dream On (Dave Clarke Acoustic Version).flac” WAVE
TRACK 05 AUDIO
INDEX 01 00:00:00
FILE “06 – Dream On (Octagon Man Mix).flac” WAVE
TRACK 06 AUDIO
INDEX 01 00:00:00
FILE “07 – Dream On (Kid 606 Mix).flac” WAVE
TRACK 07 AUDIO
INDEX 01 00:00:00
FILE “08 – Dream On (Dave Clarke Remix).flac” WAVE
TRACK 08 AUDIO
INDEX 01 00:00:00
FILE “09 – Dream On (Bushwacka Blunt Mix).flac” WAVE
TRACK 09 AUDIO
INDEX 01 00:00:00

REM COMMENT “CUETools generated dummy CUE sheet”
FILE “01 – Barrel of a Gun.flac” WAVE
TRACK 01 AUDIO
INDEX 01 00:00:00
FILE “02 – Painkiller.flac” WAVE
TRACK 02 AUDIO
INDEX 01 00:00:00
FILE “03 – Barrel of a Gun (Underworld Soft Mix).flac” WAVE
TRACK 03 AUDIO
INDEX 01 00:00:00
FILE “04 – Barrel of a Gun (One Inch Punch Mix).flac” WAVE
TRACK 04 AUDIO
INDEX 01 00:00:00
FILE “05 – Barrel of a Gun (Underworld Hard Mix).flac” WAVE
TRACK 05 AUDIO
INDEX 01 00:00:00
FILE “06 – Barrel of a Gun (United Mix).flac” WAVE
TRACK 06 AUDIO
INDEX 01 00:00:00
FILE “07 – Painkiller (Plastikman Mix).flac” WAVE
TRACK 07 AUDIO
INDEX 01 00:00:00
FILE “08 – Barrel of A Gun (3 Phase Mix).flac” WAVE
TRACK 08 AUDIO
INDEX 01 00:00:00
FILE “09 – Barrel of a Gun (One Inch Punch Mix Version 2).flac” WAVE
TRACK 09 AUDIO
INDEX 01 00:00:00

REM COMMENT “CUETools generated dummy CUE sheet”
FILE “01 – Home (Single Version).flac” WAVE
TRACK 01 AUDIO
INDEX 01 00:00:00
FILE “02 – Home (Air Around the Golf Remix).flac” WAVE
TRACK 02 AUDIO
INDEX 01 00:00:00
FILE “03 – Home (LFO Meant to Be).flac” WAVE
TRACK 03 AUDIO
INDEX 01 00:00:00
FILE “04 – Home (The Noodles and the Damage Done).flac” WAVE
TRACK 04 AUDIO
INDEX 01 00:00:00
FILE “05 – Home (Jedi Knights Remix – Drowning in Time).flac” WAVE
TRACK 05 AUDIO
INDEX 01 00:00:00
FILE “06 – Home (Grantby Mix).flac” WAVE
TRACK 06 AUDIO
INDEX 01 00:00:00
FILE “07 – Barrel of a Gun (Live).flac” WAVE
TRACK 07 AUDIO
INDEX 01 00:00:00
FILE “08 – It’s No Good (Live).flac” WAVE
TRACK 08 AUDIO
INDEX 01 00:00:00

REM COMMENT “CUETools generated dummy CUE sheet”
FILE “01 – Only When I Lose Myself.flac” WAVE
TRACK 01 AUDIO
INDEX 01 00:00:00
FILE “02 – Surrender.flac” WAVE
TRACK 02 AUDIO
INDEX 01 00:00:00
FILE “03 – Headstar.flac” WAVE
TRACK 03 AUDIO
INDEX 01 00:00:00
FILE “04 – Only When I Lose Myself (Subsonic Legacy Mix).flac” WAVE
TRACK 04 AUDIO
INDEX 01 00:00:00
FILE “05 – Only When I Lose Myself (Dan the Automator Mix).flac” WAVE
TRACK 05 AUDIO
INDEX 01 00:00:00
FILE “06 – Headstar (Luke Slater Remix).flac” WAVE
TRACK 06 AUDIO
INDEX 01 00:00:00
FILE “07 – Only When I Lose Myself (Gus Gus Long Play Mix).flac” WAVE
TRACK 07 AUDIO
INDEX 01 00:00:00
FILE “08 – Painkiller (Kill the Pain – DJ Shadow vs. Depeche Mode).flac” WAVE
TRACK 08 AUDIO
INDEX 01 00:00:00
FILE “09 – Surrender (FC Catalan Out of Reach Mix).flac” WAVE
TRACK 09 AUDIO
INDEX 01 00:00:00
FILE “10 – Only When I Lose Myself (Gus Gus Short Play Mix).flac” WAVE
TRACK 10 AUDIO
INDEX 01 00:00:00
FILE “11 – World in My Eyes (Safar Mix).flac” WAVE
TRACK 11 AUDIO
INDEX 01 00:00:00

REM COMMENT “CUETools generated dummy CUE sheet”
FILE “01 – Useless (Remix).flac” WAVE
TRACK 01 AUDIO
INDEX 01 00:00:00
FILE “02 – Useless (Escape from Wherever_ Parts 1 &2!).flac” WAVE
TRACK 02 AUDIO
INDEX 01 00:00:00
FILE “03 – Useless (Cosmic Blues Mix).flac” WAVE
TRACK 03 AUDIO
INDEX 01 00:00:00
FILE “04 – Useless (CJ Bolland Ultrasonar Mix).flac” WAVE
TRACK 04 AUDIO
INDEX 01 00:00:00
FILE “05 – Useless (The Kruder + Dorfmeister Session).flac” WAVE
TRACK 05 AUDIO
INDEX 01 00:00:00
FILE “06 – Useless (CJ Bolland Funky Sub Mix).flac” WAVE
TRACK 06 AUDIO
INDEX 01 00:00:00
FILE “07 – Useless (Air 20 Mix).flac” WAVE
TRACK 07 AUDIO
INDEX 01 00:00:00
FILE “08 – Useless (Live).flac” WAVE
TRACK 08 AUDIO
INDEX 01 00:00:00

REM COMMENT “CUETools generated dummy CUE sheet”
FILE “01 – It’s No Good (Album Version).flac” WAVE
TRACK 01 AUDIO
INDEX 01 00:00:00
FILE “02 – Slowblow (Single Version).flac” WAVE
TRACK 02 AUDIO
INDEX 01 00:00:00
FILE “03 – It’s No Good (Dom T’s Bass Bounce Mix).flac” WAVE
TRACK 03 AUDIO
INDEX 01 00:00:00
FILE “04 – It’s No Good (Speedy J Mix).flac” WAVE
TRACK 04 AUDIO
INDEX 01 00:00:00
FILE “05 – It’s No Good (Hardfloor Mix).flac” WAVE
TRACK 05 AUDIO
INDEX 01 00:00:00
FILE “06 – Slowblow (Darren Price Mix).flac” WAVE
TRACK 06 AUDIO
INDEX 01 00:00:00
FILE “07 – It’s No Good (Andrea Parker Mix).flac” WAVE
TRACK 07 AUDIO
INDEX 01 00:00:00
FILE “08 – It’s No Good (Motor Bass Mix).flac” WAVE
TRACK 08 AUDIO
INDEX 01 00:00:00


Leave a Reply

Your email address will not be published. Required fields are marked *

This site uses Akismet to reduce spam. Learn how your comment data is processed.