Depeche Mode – Singles 25-30




Artist: Depeche Mode
Year: 2004
Genre: Rock
Notes: Discogs
Add. Notes:
Cover incl.: Yes
Encoder: FLAC
Bitrate: ~1000 kBit/s (44.1 kHz/16 Bit/s)
Log & Cue incl.: Yes
Size: 2324,4 MB
Password: “slam” (without ” “)


All Downloads/Hosters are compatible

Download 1
Turbobit.net
KatFile.com
Rapidgator.net
Download 2
Turbobit.net
KatFile.com
Rapidgator.net

Tracklist:

Policy Of Truth
Policy Of Truth (7" Version)  5:11
Kaleid (7" Version)  4:18
Policy Of Truth (Beat Box)  7:13
Policy Of Truth (Capitol Mix)  8:02
Kaleid (When Worlds Mix)  5:23
Policy Of Truth (Trancentral Mix)  
5:55
Kaleid (Remix)  4:37
Policy Of Truth (Pavlov's Dub)  6:02
World In My Eyes
World In My Eyes (7" Version)  4:00
Happiest Girl (Jack Mix)  4:58
Sea Of Sin (Tonal Mix)  4:46
World In My Eyes (Oil Tank Mix)  
7:47
Happiest Girl (Kiss-A-Mix)  6:17
Sea Of Sin (Sensoria)  6:06
World In My Eyes (Dub In My Eyes)  
6:56
World In My Eyes (Mode To Joy)  
6:30
Happiest Girl (The Pulsating Orbital 
Mix)  6:28
World In My Eyes (Mayhem Mode)  
4:56
Happiest Girl (The Pulsating Orbital 
Vocal Mix)  7:58
I Feel You
I Feel You (Seven Inch Mix)  4:37
One Caress  3:31
I Feel You (Throb Mix)  6:49
I Feel You (Babylon Mix)  7:54
I Feel You (Life's Too Short Mix)  
8:35
I Feel You (Swamp Mix)  7:28
I Feel You (Renegade Soundwave 
Afghan Surgery Mix) 
 4:59
I Feel You (Helmet At The Helm Mix)  
6:43
Walking In My Shoes
Walking In My Shoes (Seven Inch 
Mix)  5:02
My Joy (Seven Inch Mix)  3:59
Walking In My Shoes (Grungy 
Gonads Mix)  6:24
My Joy (Slow Slide Mix)  5:13
Walking In My Shoes (Extended 
Twelve Inch Mix)  6:54
Walking In My Shoes (Random 
Carpet Mix)  6:36
Walking In My Shoes (Anandamidic 
Mix)  6:11
Walking In My Shoes (Ambient Whale 
Mix)  4:56
Condemnation
Condemnation (Paris Mix)  3:23
Death's Door (Jazz Mix)  6:39
Rush (Spiritual Guidance Mix)  5:31
Rush (Amylnitrate Mix - 
Instrumental)  7:42
Rush (Wild Planet Mix - Vocal)  6:24
Condemnation (Live At The Forum, 
Milan, 1993)  4:10
Personal Jesus (Live At The Forum, 
Milan, 1993)  6:00
Enjoy The Silence (Live At The 
Forum, Milan, 1993) 
 6:46
Halo (Live At The Forum, Milan, 
1993)  4:56
In Your Room
In Your Room (Zephyr Mix)  4:52
Higher Love (Adrenaline Mix) [Edit]  
4:48
In Your Room (Apex Mix)  6:45
In Your Room (The Jeep Rock Mix)  
6:21
Higher Love (Adrenaline Mix)  7:50
In Your Room (Extended Zephyr Mix)  
6:43
In Your Room (Live In Lievin)  6:51
Policy Of Truth (Live In Lievin)  5:08
World In My Eyes (Live In Lievin)  
6:15
Fly On The Windscreen (Live In 
Lievin)  5:22
Never Let Me Down Again (Live In 
Lievin)  5:01
Death's Door (Live In Lievin)  2:47

EAC-Log, CUE-Sheed & NFO:

Click to open spoiler
Exact Audio Copy V0.99 prebeta 4 from 23. January 2008

EAC extraction logfile from 1. December 2008, 6:20

Depeche Mode / Condemnation (CD BONG 23X)

Used drive : Optiarc DVD RW AD-5170A Adapter: 0 ID: 1

Read mode : Secure
Utilize accurate stream : Yes
Defeat audio cache : Yes
Make use of C2 pointers : No

Read offset correction : 48
Overread into Lead-In and Lead-Out : No
Fill up missing offset samples with silence : Yes
Delete leading and trailing silent blocks : No
Null samples used in CRC calculations : Yes
Used interface : Native Win32 interface for Win NT & 2000
Gap handling : Appended to previous track

Used output format : User Defined Encoder
Selected bitrate : 192 kBit/s
Quality : High
Add ID3 tag : No
Command line compressor : C:\Program Files (x86)\FLAC\flac.exe
Additional command line options : -8 -V -T “ARTIST=%a” -T “TITLE=%t” -T “ALBUM=%g” -T “DATE=%y” -T “TRACKNUMBER=%n” -T “GENRE=%m” -T “COMMENT=EAC FLAC -8” %s

TOC of the extracted CD

Track | Start | Length | Start sector | End sector
———————————————————
1 | 0:00.00 | 3:23.63 | 0 | 15287
2 | 3:23.63 | 6:39.40 | 15288 | 45252
3 | 10:03.28 | 5:31.05 | 45253 | 70082
4 | 15:34.33 | 7:42.52 | 70083 | 104784
5 | 23:17.10 | 6:24.55 | 104785 | 133639
6 | 29:41.65 | 4:10.28 | 133640 | 152417
7 | 33:52.18 | 6:00.15 | 152418 | 179432
8 | 39:52.33 | 6:46.00 | 179433 | 209882
9 | 46:38.33 | 4:56.05 | 209883 | 232087

Track 1

Filename G:\Temp\01 – Condemnation (Paris Mix).wav

Pre-gap length 0:00:02.00

Peak level 100.0 %
Track quality 100.0 %
Test CRC CCBADD76
Copy CRC CCBADD76
Accurately ripped (confidence 27) [73F9BABA]
Copy OK

Track 2

Filename G:\Temp\02 – Deaths Door (Jazz Mix).wav

Pre-gap length 0:00:01.04

Peak level 100.0 %
Track quality 99.3 %
Test CRC D0029B60
Copy CRC D0029B60
Accurately ripped (confidence 25) [7DF1F28B]
Copy OK

Track 3

Filename G:\Temp\03 – Rush (Spiritual Guidance Mix).wav

Pre-gap length 0:00:00.73

Peak level 100.0 %
Track quality 99.9 %
Test CRC EBA2C538
Copy CRC EBA2C538
Accurately ripped (confidence 25) [6FA564A2]
Copy OK

Track 4

Filename G:\Temp\04 – Rush (Amylnitrate Mix – Instrumental).wav

Pre-gap length 0:00:01.06

Peak level 100.0 %
Track quality 100.0 %
Test CRC 79FD8EE8
Copy CRC 79FD8EE8
Accurately ripped (confidence 25) [16FA830E]
Copy OK

Track 5

Filename G:\Temp\05 – Rush (Wild Planet Mix – Vocal).wav

Pre-gap length 0:00:01.76

Peak level 100.0 %
Track quality 100.0 %
Test CRC A2861EC8
Copy CRC A2861EC8
Accurately ripped (confidence 26) [CFE07102]
Copy OK

Track 6

Filename G:\Temp\06 – Condemnation (Live).wav

Pre-gap length 0:00:01.53

Peak level 100.0 %
Track quality 99.9 %
Test CRC F67A002C
Copy CRC F67A002C
Accurately ripped (confidence 24) [4625F4D5]
Copy OK

Track 7

Filename G:\Temp\07 – Personal Jesus (Live).wav

Pre-gap length 0:00:01.80

Peak level 100.0 %
Track quality 100.0 %
Test CRC CEE706A5
Copy CRC CEE706A5
Accurately ripped (confidence 24) [81BA2E52]
Copy OK

Track 8

Filename G:\Temp\08 – Enjoy The Silence (Live).wav

Peak level 100.0 %
Track quality 100.0 %
Test CRC 321716D2
Copy CRC 321716D2
Accurately ripped (confidence 26) [BB2BF4A7]
Copy OK

Track 9

Filename G:\Temp\09 – Halo (Live).wav

Pre-gap length 0:00:01.33

Peak level 100.0 %
Track quality 100.0 %
Test CRC A041823C
Copy CRC A041823C
Accurately ripped (confidence 24) [972269D0]
Copy OK

All tracks accurately ripped

No errors occurred

End of status report

Exact Audio Copy V0.99 prebeta 4 from 23. January 2008

EAC extraction logfile from 1. December 2008, 15:38

Depeche Mode / In Your Room (CD BONG 24X)

Used drive : Optiarc DVD RW AD-5170A Adapter: 0 ID: 1

Read mode : Secure
Utilize accurate stream : Yes
Defeat audio cache : Yes
Make use of C2 pointers : No

Read offset correction : 48
Overread into Lead-In and Lead-Out : No
Fill up missing offset samples with silence : Yes
Delete leading and trailing silent blocks : No
Null samples used in CRC calculations : Yes
Used interface : Native Win32 interface for Win NT & 2000
Gap handling : Appended to previous track

Used output format : User Defined Encoder
Selected bitrate : 192 kBit/s
Quality : High
Add ID3 tag : No
Command line compressor : C:\Program Files (x86)\FLAC\flac.exe
Additional command line options : -8 -V -T “ARTIST=%a” -T “TITLE=%t” -T “ALBUM=%g” -T “DATE=%y” -T “TRACKNUMBER=%n” -T “GENRE=%m” -T “COMMENT=EAC FLAC -8” %s

TOC of the extracted CD

Track | Start | Length | Start sector | End sector
———————————————————
1 | 0:00.00 | 4:52.46 | 0 | 21945
2 | 4:52.46 | 4:48.17 | 21946 | 43562
3 | 9:40.63 | 6:45.10 | 43563 | 73947
4 | 16:25.73 | 6:21.30 | 73948 | 102552
5 | 22:47.28 | 7:50.40 | 102553 | 137842
6 | 30:37.68 | 6:43.60 | 137843 | 168127
7 | 37:21.53 | 6:51.23 | 168128 | 198975
8 | 44:13.01 | 5:08.05 | 198976 | 222080
9 | 49:21.06 | 6:15.67 | 222081 | 250272
10 | 55:36.73 | 5:22.25 | 250273 | 274447
11 | 60:59.23 | 5:01.10 | 274448 | 297032
12 | 66:00.33 | 2:47.02 | 297033 | 309559

Track 1

Filename G:\Temp\01 – In Your Room (Zephyr Mix).wav

Pre-gap length 0:00:02.00

Peak level 100.0 %
Track quality 100.0 %
Test CRC AC02B741
Copy CRC AC02B741
Accurately ripped (confidence 27) [C6762E6C]
Copy OK

Track 2

Filename G:\Temp\02 – Higher Love (Adrenaline Mix Edit).wav

Pre-gap length 0:00:00.97

Peak level 100.0 %
Track quality 99.9 %
Test CRC B4D790BA
Copy CRC B4D790BA
Accurately ripped (confidence 27) [33BE4440]
Copy OK

Track 3

Filename G:\Temp\03 – In Your Room (Apex Mix).wav

Pre-gap length 0:00:02.64

Peak level 100.0 %
Track quality 100.0 %
Test CRC 051EAEEE
Copy CRC 051EAEEE
Accurately ripped (confidence 27) [1807B2B3]
Copy OK

Track 4

Filename G:\Temp\04 – In Your Room (The Jeep Rock Mix).wav

Pre-gap length 0:00:02.24

Peak level 100.0 %
Track quality 100.0 %
Test CRC 184D0F2D
Copy CRC 184D0F2D
Accurately ripped (confidence 27) [B9AB49E6]
Copy OK

Track 5

Filename G:\Temp\05 – Higher Lover (Adrenaline Mix).wav

Pre-gap length 0:00:02.57

Peak level 100.0 %
Track quality 99.9 %
Test CRC 11DD4A1B
Copy CRC 11DD4A1B
Accurately ripped (confidence 27) [23BE0F07]
Copy OK

Track 6

Filename G:\Temp\06 – In Your Room (Extended Zephyr Mix).wav

Pre-gap length 0:00:00.97

Peak level 100.0 %
Track quality 99.9 %
Test CRC DEC7809C
Copy CRC DEC7809C
Accurately ripped (confidence 28) [79794D04]
Copy OK

Track 7

Filename G:\Temp\07 – In Your Room (Live).wav

Pre-gap length 0:00:00.53

Peak level 100.0 %
Track quality 100.0 %
Test CRC A3BB3F4F
Copy CRC A3BB3F4F
Accurately ripped (confidence 27) [6968D59A]
Copy OK

Track 8

Filename G:\Temp\08 – Policy Of Truth (Live).wav

Pre-gap length 0:00:02.30

Peak level 100.0 %
Track quality 100.0 %
Test CRC 8C8A0716
Copy CRC 8C8A0716
Accurately ripped (confidence 27) [EDF571FF]
Copy OK

Track 9

Filename G:\Temp\09 – World In My Eyes (Live).wav

Pre-gap length 0:00:02.48

Peak level 100.0 %
Track quality 99.9 %
Test CRC EC0784C4
Copy CRC EC0784C4
Accurately ripped (confidence 27) [219E7B5D]
Copy OK

Track 10

Filename G:\Temp\10 – Fly On The Windscreen (Live).wav

Pre-gap length 0:00:02.53

Peak level 100.0 %
Track quality 100.0 %
Test CRC F1F567E2
Copy CRC F1F567E2
Accurately ripped (confidence 27) [7F91533D]
Copy OK

Track 11

Filename G:\Temp\11 – Never Let Me Down Again (Live).wav

Pre-gap length 0:00:02.10

Peak level 100.0 %
Track quality 99.7 %
Test CRC 335B5498
Copy CRC 335B5498
Accurately ripped (confidence 26) [6BEBBE5D]
Copy OK

Track 12

Filename G:\Temp\12 – Deaths Door (Live).wav

Pre-gap length 0:00:02.13

Peak level 100.0 %
Track quality 99.9 %
Test CRC 23714DA9
Copy CRC 23714DA9
Accurately ripped (confidence 26) [D7791ABB]
Copy OK

All tracks accurately ripped

No errors occurred

End of status report

Exact Audio Copy V0.99 prebeta 4 from 23. January 2008

EAC extraction logfile from 30. November 2008, 17:30

Depeche Mode / World In My Eyes (CD BONG 20X)

Used drive : Optiarc DVD RW AD-5170A Adapter: 0 ID: 1

Read mode : Secure
Utilize accurate stream : Yes
Defeat audio cache : Yes
Make use of C2 pointers : No

Read offset correction : 48
Overread into Lead-In and Lead-Out : No
Fill up missing offset samples with silence : Yes
Delete leading and trailing silent blocks : No
Null samples used in CRC calculations : Yes
Used interface : Native Win32 interface for Win NT & 2000
Gap handling : Appended to previous track

Used output format : User Defined Encoder
Selected bitrate : 192 kBit/s
Quality : High
Add ID3 tag : No
Command line compressor : C:\Program Files (x86)\FLAC\flac.exe
Additional command line options : -8 -V -T “ARTIST=%a” -T “TITLE=%t” -T “ALBUM=%g” -T “DATE=%y” -T “TRACKNUMBER=%n” -T “GENRE=%m” -T “COMMENT=EAC FLAC -8” %s

TOC of the extracted CD

Track | Start | Length | Start sector | End sector
———————————————————
1 | 0:00.00 | 4:00.40 | 0 | 18039
2 | 4:00.40 | 4:58.27 | 18040 | 40416
3 | 8:58.67 | 4:46.15 | 40417 | 61881
4 | 13:45.07 | 7:47.38 | 61882 | 96944
5 | 21:32.45 | 6:17.45 | 96945 | 125264
6 | 27:50.15 | 6:06.10 | 125265 | 152724
7 | 33:56.25 | 6:56.72 | 152725 | 183996
8 | 40:53.22 | 6:30.38 | 183997 | 213284
9 | 47:23.60 | 6:28.65 | 213285 | 242449
10 | 53:52.50 | 4:56.73 | 242450 | 264722
11 | 58:49.48 | 7:58.72 | 264723 | 300644

Track 1

Filename G:\Temp\01 – World In My Eyes (7 Version).wav

Pre-gap length 0:00:02.00

Peak level 100.0 %
Track quality 100.0 %
Test CRC D1714401
Copy CRC D1714401
Accurately ripped (confidence 27) [630ABA95]
Copy OK

Track 2

Filename G:\Temp\02 – Happiest Girl (Jack Mix).wav

Pre-gap length 0:00:02.29

Peak level 100.0 %
Track quality 100.0 %
Test CRC A3FFBC9B
Copy CRC A3FFBC9B
Accurately ripped (confidence 27) [EBF962BB]
Copy OK

Track 3

Filename G:\Temp\03 – Sea Of Sin (Tonal Mix).wav

Pre-gap length 0:00:01.76

Peak level 100.0 %
Track quality 100.0 %
Test CRC C7B4E1DC
Copy CRC C7B4E1DC
Accurately ripped (confidence 27) [C4B75AC0]
Copy OK

Track 4

Filename G:\Temp\04 – World In My Eyes (Oil Tank Mix).wav

Pre-gap length 0:00:01.96

Peak level 100.0 %
Track quality 100.0 %
Test CRC 4161CF63
Copy CRC 4161CF63
Accurately ripped (confidence 28) [32A2B655]
Copy OK

Track 5

Filename G:\Temp\05 – Happiest Girl (Kiss-A-Mix).wav

Pre-gap length 0:00:01.56

Peak level 100.0 %
Track quality 100.0 %
Test CRC E1E41115
Copy CRC E1E41115
Accurately ripped (confidence 27) [DB66F731]
Copy OK

Track 6

Filename G:\Temp\06 – Sea Of Sin (Sensoria).wav

Pre-gap length 0:00:02.13

Peak level 100.0 %
Track quality 100.0 %
Test CRC F700F4AC
Copy CRC F700F4AC
Accurately ripped (confidence 27) [BD8BBDEA]
Copy OK

Track 7

Filename G:\Temp\07 – World In My Eyes (Dub In My Eyes).wav

Pre-gap length 0:00:01.49

Peak level 100.0 %
Track quality 100.0 %
Test CRC 0DD1C93D
Copy CRC 0DD1C93D
Accurately ripped (confidence 26) [C663CBE9]
Copy OK

Track 8

Filename G:\Temp\08 – World In My Eyes (Mode To Joy).wav

Pre-gap length 0:00:02.02

Peak level 100.0 %
Track quality 99.9 %
Test CRC 0DAD06FB
Copy CRC 0DAD06FB
Accurately ripped (confidence 28) [D60ABB22]
Copy OK

Track 9

Filename G:\Temp\09 – Happiest Girl (The Pulsating Orbital Mix).wav

Pre-gap length 0:00:01.66

Peak level 100.0 %
Track quality 99.9 %
Test CRC 0C209630
Copy CRC 0C209630
Accurately ripped (confidence 27) [E9914E16]
Copy OK

Track 10

Filename G:\Temp\10 – World In My Eyes (Mayhem Mode).wav

Pre-gap length 0:00:01.82

Peak level 100.0 %
Track quality 100.0 %
Test CRC A1347E62
Copy CRC A1347E62
Accurately ripped (confidence 27) [684563F5]
Copy OK

Track 11

Filename G:\Temp\11 – Happiest Girl (The Pulsating Orbital Vocal Mix).wav

Pre-gap length 0:00:01.70

Peak level 100.0 %
Track quality 100.0 %
Test CRC 99922F5B
Copy CRC 99922F5B
Accurately ripped (confidence 27) [49EF3070]
Copy OK

All tracks accurately ripped

No errors occurred

End of status report

Exact Audio Copy V0.99 prebeta 4 from 23. January 2008

EAC extraction logfile from 1. December 2008, 6:38

Depeche Mode / I Feel You (CD BONG 21X)

Used drive : Optiarc DVD RW AD-5170A Adapter: 0 ID: 1

Read mode : Secure
Utilize accurate stream : Yes
Defeat audio cache : Yes
Make use of C2 pointers : No

Read offset correction : 48
Overread into Lead-In and Lead-Out : No
Fill up missing offset samples with silence : Yes
Delete leading and trailing silent blocks : No
Null samples used in CRC calculations : Yes
Used interface : Native Win32 interface for Win NT & 2000
Gap handling : Appended to previous track

Used output format : User Defined Encoder
Selected bitrate : 192 kBit/s
Quality : High
Add ID3 tag : No
Command line compressor : C:\Program Files (x86)\FLAC\flac.exe
Additional command line options : -8 -V -T “ARTIST=%a” -T “TITLE=%t” -T “ALBUM=%g” -T “DATE=%y” -T “TRACKNUMBER=%n” -T “GENRE=%m” -T “COMMENT=EAC FLAC -8” %s

TOC of the extracted CD

Track | Start | Length | Start sector | End sector
———————————————————
1 | 0:00.00 | 4:37.13 | 0 | 20787
2 | 4:37.13 | 3:31.52 | 20788 | 36664
3 | 8:08.65 | 6:49.45 | 36665 | 67384
4 | 14:58.35 | 7:54.70 | 67385 | 103004
5 | 22:53.30 | 8:35.18 | 103005 | 141647
6 | 31:28.48 | 7:28.27 | 141648 | 175274
7 | 38:57.00 | 4:59.23 | 175275 | 197722
8 | 43:56.23 | 6:43.14 | 197723 | 227961

Track 1

Filename G:\Temp\01 – I Feel You (Seven Inch Mix).wav

Pre-gap length 0:00:02.00

Peak level 100.0 %
Track quality 100.0 %
Test CRC 92B0C82B
Copy CRC 92B0C82B
Accurately ripped (confidence 24) [5F85DCA8]
Copy OK

Track 2

Filename G:\Temp\02 – One Caress (Album Version).wav

Pre-gap length 0:00:01.84

Peak level 100.0 %
Track quality 100.0 %
Test CRC 6BDF6759
Copy CRC 6BDF6759
Accurately ripped (confidence 25) [7D606B93]
Copy OK

Track 3

Filename G:\Temp\03 – I Feel You (Throb Mix).wav

Pre-gap length 0:00:01.02

Peak level 100.0 %
Track quality 100.0 %
Test CRC 043115C1
Copy CRC 043115C1
Accurately ripped (confidence 26) [DAAA4793]
Copy OK

Track 4

Filename G:\Temp\04 – I Feel You (Babylon Mix).wav

Pre-gap length 0:00:02.22

Peak level 100.0 %
Track quality 100.0 %
Test CRC 4059BC01
Copy CRC 4059BC01
Accurately ripped (confidence 25) [BA58629B]
Copy OK

Track 5

Filename G:\Temp\05 – I Feel You (Lifes Too Short Mix).wav

Pre-gap length 0:00:01.56

Peak level 100.0 %
Track quality 100.0 %
Test CRC 684820AF
Copy CRC 684820AF
Accurately ripped (confidence 25) [5E8ECF86]
Copy OK

Track 6

Filename G:\Temp\06 – I Feel You (Swamp Mix).wav

Pre-gap length 0:00:01.44

Peak level 100.0 %
Track quality 100.0 %
Test CRC 59118F10
Copy CRC 59118F10
Accurately ripped (confidence 25) [9CE7BF3A]
Copy OK

Track 7

Filename G:\Temp\07 – I Feel You (Renegade Soundwave Afghan Surgery Mix).wav

Pre-gap length 0:00:01.42

Peak level 100.0 %
Track quality 99.9 %
Test CRC 03911A49
Copy CRC 03911A49
Accurately ripped (confidence 25) [B85437B8]
Copy OK

Track 8

Filename G:\Temp\08 – I Feel You (Helmet At The Helm Mix).wav

Pre-gap length 0:00:00.80

Peak level 100.0 %
Track quality 100.0 %
Test CRC A7DD5E80
Copy CRC A7DD5E80
Accurately ripped (confidence 25) [D2A6314A]
Copy OK

All tracks accurately ripped

No errors occurred

End of status report

Exact Audio Copy V0.99 prebeta 4 from 23. January 2008

EAC extraction logfile from 1. December 2008, 5:34

Depeche Mode / Walking In My Shoes (CD BONG 22X)

Used drive : Optiarc DVD RW AD-5170A Adapter: 0 ID: 1

Read mode : Secure
Utilize accurate stream : Yes
Defeat audio cache : Yes
Make use of C2 pointers : No

Read offset correction : 48
Overread into Lead-In and Lead-Out : No
Fill up missing offset samples with silence : Yes
Delete leading and trailing silent blocks : No
Null samples used in CRC calculations : Yes
Used interface : Native Win32 interface for Win NT & 2000
Gap handling : Appended to previous track

Used output format : User Defined Encoder
Selected bitrate : 192 kBit/s
Quality : High
Add ID3 tag : No
Command line compressor : C:\Program Files (x86)\FLAC\flac.exe
Additional command line options : -8 -V -T “ARTIST=%a” -T “TITLE=%t” -T “ALBUM=%g” -T “DATE=%y” -T “TRACKNUMBER=%n” -T “GENRE=%m” -T “COMMENT=EAC FLAC -8” %s

TOC of the extracted CD

Track | Start | Length | Start sector | End sector
———————————————————
1 | 0:00.00 | 5:02.10 | 0 | 22659
2 | 5:02.10 | 3:59.13 | 22660 | 40597
3 | 9:01.23 | 6:24.62 | 40598 | 69459
4 | 15:26.10 | 5:13.05 | 69460 | 92939
5 | 20:39.15 | 6:54.20 | 92940 | 124009
6 | 27:33.35 | 6:36.48 | 124010 | 153757
7 | 34:10.08 | 6:11.55 | 153758 | 181637
8 | 40:21.63 | 4:56.49 | 181638 | 203886

Track 1

Filename G:\Temp\01 – Walking In My Shoes (Seven Inch Mix).wav

Pre-gap length 0:00:02.00

Peak level 100.0 %
Track quality 100.0 %
Test CRC E88142A1
Copy CRC E88142A1
Accurately ripped (confidence 25) [EAD1EDA8]
Copy OK

Track 2

Filename G:\Temp\02 – My Joy (Seven Inch Mix).wav

Pre-gap length 0:00:02.09

Peak level 100.0 %
Track quality 100.0 %
Test CRC 8624217A
Copy CRC 8624217A
Accurately ripped (confidence 25) [D128B480]
Copy OK

Track 3

Filename G:\Temp\03 – Walking In My Shoes (Grungy Gonads Mix).wav

Pre-gap length 0:00:01.60

Peak level 100.0 %
Track quality 99.9 %
Test CRC 511AD8D5
Copy CRC 511AD8D5
Accurately ripped (confidence 25) [A0477C23]
Copy OK

Track 4

Filename G:\Temp\04 – My Joy (Slow Slide Mix).wav

Pre-gap length 0:00:01.80

Peak level 100.0 %
Track quality 100.0 %
Test CRC 7914727C
Copy CRC 7914727C
Accurately ripped (confidence 25) [DB6AF9E3]
Copy OK

Track 5

Filename G:\Temp\05 – Walking In My Shoes (Extended Twelve Inch Mix).wav

Pre-gap length 0:00:01.33

Peak level 100.0 %
Track quality 100.0 %
Test CRC 44031F35
Copy CRC 44031F35
Accurately ripped (confidence 26) [E04CBB32]
Copy OK

Track 6

Filename G:\Temp\06 – Walking In My Shoes (Random Carpet Mix).wav

Pre-gap length 0:00:01.60

Peak level 100.0 %
Track quality 100.0 %
Test CRC FE2B10D3
Copy CRC FE2B10D3
Accurately ripped (confidence 25) [255B7008]
Copy OK

Track 7

Filename G:\Temp\07 – Walking In My Shoes (Anandamidic Mix).wav

Pre-gap length 0:00:01.00

Peak level 100.0 %
Track quality 100.0 %
Test CRC 2F70A332
Copy CRC 2F70A332
Accurately ripped (confidence 25) [86D8558A]
Copy OK

Track 8

Filename G:\Temp\08 – Walking In My Shoes (Ambient Whale Mix).wav

Pre-gap length 0:00:00.33

Peak level 100.0 %
Track quality 100.0 %
Test CRC BA192F63
Copy CRC BA192F63
Accurately ripped (confidence 25) [D7CDCD1C]
Copy OK

All tracks accurately ripped

No errors occurred

End of status report

Exact Audio Copy V0.99 prebeta 4 from 23. January 2008

EAC extraction logfile from 30. November 2008, 14:50

Depeche Mode / Policy Of Truth (CD BONG 19X)

Used drive : Optiarc DVD RW AD-5170A Adapter: 0 ID: 1

Read mode : Secure
Utilize accurate stream : Yes
Defeat audio cache : Yes
Make use of C2 pointers : No

Read offset correction : 48
Overread into Lead-In and Lead-Out : No
Fill up missing offset samples with silence : Yes
Delete leading and trailing silent blocks : No
Null samples used in CRC calculations : Yes
Used interface : Native Win32 interface for Win NT & 2000
Gap handling : Appended to previous track

Used output format : User Defined Encoder
Selected bitrate : 192 kBit/s
Quality : High
Add ID3 tag : No
Command line compressor : C:\Program Files (x86)\FLAC\flac.exe
Additional command line options : -8 -V -T “ARTIST=%a” -T “TITLE=%t” -T “ALBUM=%g” -T “DATE=%y” -T “TRACKNUMBER=%n” -T “GENRE=%m” -T “COMMENT=EAC FLAC -8” %s

TOC of the extracted CD

Track | Start | Length | Start sector | End sector
———————————————————
1 | 0:00.00 | 5:11.25 | 0 | 23349
2 | 5:11.25 | 4:18.45 | 23350 | 42744
3 | 9:29.70 | 7:13.43 | 42745 | 75262
4 | 16:43.38 | 8:02.12 | 75263 | 111424
5 | 24:45.50 | 5:23.20 | 111425 | 135669
6 | 30:08.70 | 5:55.28 | 135670 | 162322
7 | 36:04.23 | 4:37.52 | 162323 | 183149
8 | 40:42.00 | 6:02.60 | 183150 | 210359

Track 1

Filename G:\Temp\01 – Policy Of Truth (7 Version).wav

Pre-gap length 0:00:02.00

Peak level 100.0 %
Track quality 99.9 %
Test CRC EF8CC8C0
Copy CRC EF8CC8C0
Accurately ripped (confidence 28) [CD35FD3F]
Copy OK

Track 2

Filename G:\Temp\02 – Kaleid (7 Version).wav

Pre-gap length 0:00:01.69

Peak level 100.0 %
Track quality 100.0 %
Test CRC 324BF32F
Copy CRC 324BF32F
Accurately ripped (confidence 29) [10DB3816]
Copy OK

Track 3

Filename G:\Temp\03 – Policy Of Truth (Beat Box).wav

Pre-gap length 0:00:01.20

Peak level 100.0 %
Track quality 100.0 %
Test CRC C999666E
Copy CRC C999666E
Accurately ripped (confidence 30) [7B45D35E]
Copy OK

Track 4

Filename G:\Temp\04 – Policy Of Truth (Capitol Mix).wav

Pre-gap length 0:00:00.57

Peak level 100.0 %
Track quality 99.9 %
Test CRC C1736335
Copy CRC C1736335
Accurately ripped (confidence 29) [D8CF8202]
Copy OK

Track 5

Filename G:\Temp\05 – Kaleid (When Worlds Mix).wav

Pre-gap length 0:00:02.57

Peak level 100.0 %
Track quality 100.0 %
Test CRC F8468780
Copy CRC F8468780
Accurately ripped (confidence 28) [6E9DCDE0]
Copy OK

Track 6

Filename G:\Temp\06 – Policy Of Truth (Trancentral Mix).wav

Pre-gap length 0:00:02.09

Peak level 100.0 %
Track quality 100.0 %
Test CRC 1679722D
Copy CRC 1679722D
Accurately ripped (confidence 28) [B7776C65]
Copy OK

Track 7

Filename G:\Temp\07 – Kaleid (Remix).wav

Pre-gap length 0:00:02.24

Peak level 100.0 %
Track quality 100.0 %
Test CRC CFE21A11
Copy CRC CFE21A11
Accurately ripped (confidence 28) [33026523]
Copy OK

Track 8

Filename G:\Temp\08 – Policy Of Truth (Pavlovs Dub).wav

Pre-gap length 0:00:01.69

Peak level 100.0 %
Track quality 99.8 %
Test CRC 30074E7F
Copy CRC 30074E7F
Accurately ripped (confidence 28) [EA49B2A4]
Copy OK

All tracks accurately ripped

No errors occurred

End of status report

REM COMMENT “CUETools generated dummy CUE sheet”
FILE “01 – I Feel You (7” Mix).flac” WAVE
TRACK 01 AUDIO
INDEX 01 00:00:00
FILE “02 – One Caress (Album Version).flac” WAVE
TRACK 02 AUDIO
INDEX 01 00:00:00
FILE “03 – I Feel You (Throb Mix).flac” WAVE
TRACK 03 AUDIO
INDEX 01 00:00:00
FILE “04 – I Feel You (Babylon Mix).flac” WAVE
TRACK 04 AUDIO
INDEX 01 00:00:00
FILE “05 – I Feel You (Lifes Too Short Mix).flac” WAVE
TRACK 05 AUDIO
INDEX 01 00:00:00
FILE “06 – I Feel You (Swamp Mix).flac” WAVE
TRACK 06 AUDIO
INDEX 01 00:00:00
FILE “07 – I Feel You (Renegade Soundwave Afghan Surgery Mix).flac” WAVE
TRACK 07 AUDIO
INDEX 01 00:00:00
FILE “08 – I Feel You (Helmet at the Helm Mix).flac” WAVE
TRACK 08 AUDIO
INDEX 01 00:00:00

REM COMMENT “CUETools generated dummy CUE sheet”
FILE “01 – Walking in My Shoes (Seven Inch Mix).flac” WAVE
TRACK 01 AUDIO
INDEX 01 00:00:00
FILE “02 – My Joy (Seven Inch Mix).flac” WAVE
TRACK 02 AUDIO
INDEX 01 00:00:00
FILE “03 – Walking in My Shoes (Grungy Gonads Mix).flac” WAVE
TRACK 03 AUDIO
INDEX 01 00:00:00
FILE “04 – My Joy (Slow Slide Mix).flac” WAVE
TRACK 04 AUDIO
INDEX 01 00:00:00
FILE “05 – Walking in My Shoes (Extended Twelve Inch Mix).flac” WAVE
TRACK 05 AUDIO
INDEX 01 00:00:00
FILE “06 – Walking in My Shoes (Random Carpet Mix).flac” WAVE
TRACK 06 AUDIO
INDEX 01 00:00:00
FILE “07 – Walking in My Shoes (Anandamidic Mix).flac” WAVE
TRACK 07 AUDIO
INDEX 01 00:00:00
FILE “08 – Walking in My Shoes (Ambient Whale Mix).flac” WAVE
TRACK 08 AUDIO
INDEX 01 00:00:00

REM COMMENT “CUETools generated dummy CUE sheet”
FILE “01 – Condemnation (Paris Mix).flac” WAVE
TRACK 01 AUDIO
INDEX 01 00:00:00
FILE “02 – Death’s Door (Jazz Mix).flac” WAVE
TRACK 02 AUDIO
INDEX 01 00:00:00
FILE “03 – Rush (Spiritual Guidance Mix).flac” WAVE
TRACK 03 AUDIO
INDEX 01 00:00:00
FILE “04 – Rush (Amylnitrate Mix – Instrumental).flac” WAVE
TRACK 04 AUDIO
INDEX 01 00:00:00
FILE “05 – Rush (Wild Planet Mix – Vocal).flac” WAVE
TRACK 05 AUDIO
INDEX 01 00:00:00
FILE “06 – Condemnation (Live).flac” WAVE
TRACK 06 AUDIO
INDEX 01 00:00:00
FILE “07 – Personal Jesus (Live).flac” WAVE
TRACK 07 AUDIO
INDEX 01 00:00:00
FILE “08 – Enjoy the Silence (Live).flac” WAVE
TRACK 08 AUDIO
INDEX 01 00:00:00
FILE “09 – Halo (Live).flac” WAVE
TRACK 09 AUDIO
INDEX 01 00:00:00

REM COMMENT “CUETools generated dummy CUE sheet”
FILE “01 – Policy of Truth (7” Version).flac” WAVE
TRACK 01 AUDIO
INDEX 01 00:00:00
FILE “02 – Kaleid (7” Version).flac” WAVE
TRACK 02 AUDIO
INDEX 01 00:00:00
FILE “03 – Policy of Truth (Beat Box).flac” WAVE
TRACK 03 AUDIO
INDEX 01 00:00:00
FILE “04 – Policy of Truth (Capitol Mix).flac” WAVE
TRACK 04 AUDIO
INDEX 01 00:00:00
FILE “05 – Kaleid (When Worlds Mix).flac” WAVE
TRACK 05 AUDIO
INDEX 01 00:00:00
FILE “06 – Policy of Truth (Trancentral Mix).flac” WAVE
TRACK 06 AUDIO
INDEX 01 00:00:00
FILE “07 – Kaleid (Remix).flac” WAVE
TRACK 07 AUDIO
INDEX 01 00:00:00
FILE “08 – Policy of Truth (Pavlov’s Dub).flac” WAVE
TRACK 08 AUDIO
INDEX 01 00:00:00

REM COMMENT “CUETools generated dummy CUE sheet”
FILE “01 – In Your Room (Zephyr Mix).flac” WAVE
TRACK 01 AUDIO
INDEX 01 00:00:00
FILE “02 – Higher Love (Adrenaline Mix Edit).flac” WAVE
TRACK 02 AUDIO
INDEX 01 00:00:00
FILE “03 – In Your Room (Apex Mix).flac” WAVE
TRACK 03 AUDIO
INDEX 01 00:00:00
FILE “04 – In Your Room (The Jeep Rock Mix).flac” WAVE
TRACK 04 AUDIO
INDEX 01 00:00:00
FILE “05 – Higher Lover (Adrenaline Mix).flac” WAVE
TRACK 05 AUDIO
INDEX 01 00:00:00
FILE “06 – In Your Room (Extended Zephyr Mix).flac” WAVE
TRACK 06 AUDIO
INDEX 01 00:00:00
FILE “07 – In Your Room (Live).flac” WAVE
TRACK 07 AUDIO
INDEX 01 00:00:00
FILE “08 – Policy of Truth (Live).flac” WAVE
TRACK 08 AUDIO
INDEX 01 00:00:00
FILE “09 – World in My Eyes (Live).flac” WAVE
TRACK 09 AUDIO
INDEX 01 00:00:00
FILE “10 – Fly on the Windscreen (Live).flac” WAVE
TRACK 10 AUDIO
INDEX 01 00:00:00
FILE “11 – Never Let Me Down Again (Live).flac” WAVE
TRACK 11 AUDIO
INDEX 01 00:00:00
FILE “12 – Death’s Door (Live).flac” WAVE
TRACK 12 AUDIO
INDEX 01 00:00:00

REM COMMENT “CUETools generated dummy CUE sheet”
FILE “01 – World in My Eyes (7” Version).flac” WAVE
TRACK 01 AUDIO
INDEX 01 00:00:00
FILE “02 – Happiest Girl (Jack Mix).flac” WAVE
TRACK 02 AUDIO
INDEX 01 00:00:00
FILE “03 – Sea of Sin (Tonal Mix).flac” WAVE
TRACK 03 AUDIO
INDEX 01 00:00:00
FILE “04 – World in My Eyes (Oil Tank Mix).flac” WAVE
TRACK 04 AUDIO
INDEX 01 00:00:00
FILE “05 – Happiest Girl (Kiss-A-Mix).flac” WAVE
TRACK 05 AUDIO
INDEX 01 00:00:00
FILE “06 – Sea of Sin (Sensoria).flac” WAVE
TRACK 06 AUDIO
INDEX 01 00:00:00
FILE “07 – World in My Eyes (Dub in My Eyes).flac” WAVE
TRACK 07 AUDIO
INDEX 01 00:00:00
FILE “08 – World in My Eyes (Mode to Joy).flac” WAVE
TRACK 08 AUDIO
INDEX 01 00:00:00
FILE “09 – Happiest Girl (The Pulsating Orbital Mix).flac” WAVE
TRACK 09 AUDIO
INDEX 01 00:00:00
FILE “10 – World in My Eyes (Mayhem Mode).flac” WAVE
TRACK 10 AUDIO
INDEX 01 00:00:00
FILE “11 – Happiest Girl (The Pulsating Orbital Vocal Mix).flac” WAVE
TRACK 11 AUDIO
INDEX 01 00:00:00


Leave a Reply

Your email address will not be published. Required fields are marked *

This site uses Akismet to reduce spam. Learn how your comment data is processed.