Depeche Mode – Singles 13-18




Artist: Depeche Mode
Year: 1991
Genre: Rock
Notes: Discogs
Add. Notes:
Cover incl.: Yes
Encoder: FLAC
Bitrate: ~800 kBit/s (44.1 kHz/16 Bit/s)
Log & Cue incl.: Yes
Size: 1175,46 MB
Password: “slam” (without ” “)


All Downloads/Hosters are compatible

Download 1
Turbobit.net
KatFile.com
Rapidgator.net
Download 2
Turbobit.net
KatFile.com
Rapidgator.net

Tracklist:

Shake The Disease
1-1  Shake The Disease  4:47
1-2  Flexible  3:10
1-3  Shake The Disease (Remixed 
Extended) 
 8:45
1-4  Flexible (Remixed Extended)  
6:16
1-5  Shake The Disease (Edit The 
Shake)  7:10
1-6  Something To Do (Metal Mix)  
7:27
 It's Called A Heart
2-1  It's Called A Heart  3:48
2-2  Fly On The Windscreen  5:04
2-3  It's Called A Heart (Extended)  
7:19
2-4  Fly On The Windscreen 
(Extended)  7:49
2-5  Fly On The Windscreen (Death 
Mix)  5:08
 Stripped
3-1  Stripped  4:00
3-2  But Not Tonight  4:16
3-3  Stripped (Highland Mix)  6:41
3-4  But Not Tonight (Extended 
Remix)  5:13
3-5  Breathing In Fumes  6:06
3-6  Fly On The Windscreen (Quiet 
Mix)  4:24
3-7  Black Day  2:37
 A Question Of Lust
4-1  A Question Of Lust  4:28
4-2  Christmas Island  4:51
4-3  Christmas Island (Extended)  
5:39
4-4  People Are People (Live)  4:23
4-5  It Doesn't Matter Two 
(Instrumental)  2:46
4-6  A Question Of Lust (Minimal)  
6:48
 A Question Of Time
5-1  A Question Of Time (Remix)  
4:05
5-2  Black Celebration (Live)  6:05
5-3  Something To Do (Live)  3:50
5-4  Stripped (Live)  6:23
5-5  More Than A Party (Live)  5:07
5-6  A Question Of Time (Extended 
Remix)  6:39
5-7  Black Celebration (Black Tulip 
Mix)  6:34
5-8  A Question Of Time (New Town 
Mix / Live 
Remix)  11:08
 Little 15
6-1  Little 15  4:14
6-2  St Jarna  4:23
6-3  Sonata No. 14 In C#m 
(Moonlight Sonata) 
 5:36

EAC-Log, CUE-Sheed & NFO:

Click to open spoiler
Exact Audio Copy V0.99 prebeta 4 from 23. January 2008

EAC extraction logfile from 9. December 2008, 17:11

Depeche Mode / It’s Called A Heart (CDBONG 9)

Used drive : Optiarc DVD RW AD-5170A Adapter: 0 ID: 1

Read mode : Secure
Utilize accurate stream : Yes
Defeat audio cache : Yes
Make use of C2 pointers : No

Read offset correction : 48
Overread into Lead-In and Lead-Out : No
Fill up missing offset samples with silence : Yes
Delete leading and trailing silent blocks : No
Null samples used in CRC calculations : Yes
Used interface : Native Win32 interface for Win NT & 2000
Gap handling : Appended to previous track

Used output format : User Defined Encoder
Selected bitrate : 192 kBit/s
Quality : High
Add ID3 tag : No
Command line compressor : C:\Program Files (x86)\FLAC\flac.exe
Additional command line options : -8 -V -T “ARTIST=%a” -T “TITLE=%t” -T “ALBUM=%g” -T “DATE=%y” -T “TRACKNUMBER=%n” -T “GENRE=%m” -T “COMMENT=EAC FLAC -8” %s

TOC of the extracted CD

Track | Start | Length | Start sector | End sector
———————————————————
1 | 0:00.32 | 3:50.35 | 32 | 17316
2 | 3:50.67 | 5:05.35 | 17317 | 40226
3 | 8:56.27 | 7:20.48 | 40227 | 73274
4 | 16:17.00 | 7:49.12 | 73275 | 108461
5 | 24:06.12 | 5:07.58 | 108462 | 131544

Track 1

Filename G:\Temp\01 – It’s Called A Heart.wav

Pre-gap length 0:00:02.42

Peak level 98.5 %
Track quality 99.9 %
Test CRC 322C30DC
Copy CRC 322C30DC
Accurately ripped (confidence 11) [15DEFDEF]
Copy OK

Track 2

Filename G:\Temp\02 – Fly On The Windscreen.wav

Pre-gap length 0:00:01.56

Peak level 96.2 %
Track quality 100.0 %
Test CRC 1218392E
Copy CRC 1218392E
Accurately ripped (confidence 11) [5A404C93]
Copy OK

Track 3

Filename G:\Temp\03 – It’s Called A Heart (Extended).wav

Pre-gap length 0:00:01.60

Peak level 97.6 %
Track quality 99.9 %
Test CRC 6AEB7FD4
Copy CRC 6AEB7FD4
Accurately ripped (confidence 11) [2CDA3E4B]
Copy OK

Track 4

Filename G:\Temp\04 – Fly On The Windscreen (Extended).wav

Pre-gap length 0:00:01.44

Peak level 80.6 %
Track quality 100.0 %
Test CRC 618CF2E2
Copy CRC 618CF2E2
Accurately ripped (confidence 11) [8F01340B]
Copy OK

Track 5

Filename G:\Temp\05 – Fly On The Windscreen (Death Mix).wav

Pre-gap length 0:00:00.53

Peak level 77.2 %
Track quality 100.0 %
Test CRC 3A47ACE8
Copy CRC 3A47ACE8
Accurately ripped (confidence 11) [13A860D2]
Copy OK

All tracks accurately ripped

No errors occurred

End of status report

Exact Audio Copy V0.99 prebeta 4 from 23. January 2008

EAC extraction logfile from 9. December 2008, 18:27

Depeche Mode / Little 15 (CDLITTLE 15)

Used drive : Optiarc DVD RW AD-5170A Adapter: 0 ID: 1

Read mode : Secure
Utilize accurate stream : Yes
Defeat audio cache : Yes
Make use of C2 pointers : No

Read offset correction : 48
Overread into Lead-In and Lead-Out : No
Fill up missing offset samples with silence : Yes
Delete leading and trailing silent blocks : No
Null samples used in CRC calculations : Yes
Used interface : Native Win32 interface for Win NT & 2000
Gap handling : Appended to previous track

Used output format : User Defined Encoder
Selected bitrate : 192 kBit/s
Quality : High
Add ID3 tag : No
Command line compressor : C:\Program Files (x86)\FLAC\flac.exe
Additional command line options : -8 -V -T “ARTIST=%a” -T “TITLE=%t” -T “ALBUM=%g” -T “DATE=%y” -T “TRACKNUMBER=%n” -T “GENRE=%m” -T “COMMENT=EAC FLAC -8” %s

TOC of the extracted CD

Track | Start | Length | Start sector | End sector
———————————————————
1 | 0:00.30 | 4:16.35 | 30 | 19264
2 | 4:16.65 | 4:25.20 | 19265 | 39159
3 | 8:42.10 | 5:36.25 | 39160 | 64384

Track 1

Filename G:\Temp\01 – Little 15.wav

Pre-gap length 0:00:02.40

Peak level 87.6 %
Track quality 100.0 %
Test CRC 3D88DDE3
Copy CRC 3D88DDE3
Accurately ripped (confidence 9) [71DA1642]
Copy OK

Track 2

Filename G:\Temp\02 – St Jarna.wav

Pre-gap length 0:00:01.80

Peak level 52.8 %
Track quality 100.0 %
Test CRC 72270988
Copy CRC 72270988
Accurately ripped (confidence 9) [9BE8913D]
Copy OK

Track 3

Filename G:\Temp\03 – Sonata No 14 in C#m (Moonlight Sonata).wav

Pre-gap length 0:00:02.73

Peak level 57.0 %
Track quality 100.0 %
Test CRC E017F262
Copy CRC E017F262
Accurately ripped (confidence 9) [7D8DEF3F]
Copy OK

All tracks accurately ripped

No errors occurred

End of status report

Exact Audio Copy V0.99 prebeta 4 from 23. January 2008

EAC extraction logfile from 9. December 2008, 18:10

Depeche Mode / A Question Of Time (CDBONG 12)

Used drive : Optiarc DVD RW AD-5170A Adapter: 0 ID: 1

Read mode : Secure
Utilize accurate stream : Yes
Defeat audio cache : Yes
Make use of C2 pointers : No

Read offset correction : 48
Overread into Lead-In and Lead-Out : No
Fill up missing offset samples with silence : Yes
Delete leading and trailing silent blocks : No
Null samples used in CRC calculations : Yes
Used interface : Native Win32 interface for Win NT & 2000
Gap handling : Appended to previous track

Used output format : User Defined Encoder
Selected bitrate : 192 kBit/s
Quality : High
Add ID3 tag : No
Command line compressor : C:\Program Files (x86)\FLAC\flac.exe
Additional command line options : -8 -V -T “ARTIST=%a” -T “TITLE=%t” -T “ALBUM=%g” -T “DATE=%y” -T “TRACKNUMBER=%n” -T “GENRE=%m” -T “COMMENT=EAC FLAC -8” %s

TOC of the extracted CD

Track | Start | Length | Start sector | End sector
———————————————————
1 | 0:00.32 | 4:05.55 | 32 | 18461
2 | 4:06.12 | 6:05.35 | 18462 | 45871
3 | 10:11.47 | 3:50.30 | 45872 | 63151
4 | 14:02.02 | 6:23.25 | 63152 | 91901
5 | 20:25.27 | 5:07.53 | 91902 | 114979
6 | 25:33.05 | 6:39.72 | 114980 | 144976
7 | 32:13.02 | 6:34.18 | 144977 | 174544
8 | 38:47.20 | 11:08.12 | 174545 | 224656

Track 1

Filename G:\Temp\01 – A Question Of Time (Remix).wav

Pre-gap length 0:00:02.42

Peak level 85.0 %
Track quality 99.9 %
Test CRC 47858B8D
Copy CRC 47858B8D
Accurately ripped (confidence 9) [71A237C8]
Copy OK

Track 2

Filename G:\Temp\02 – Black Celebration (Live).wav

Pre-gap length 0:00:01.00

Peak level 87.2 %
Track quality 100.0 %
Test CRC DE9CBB9A
Copy CRC DE9CBB9A
Accurately ripped (confidence 9) [61914769]
Copy OK

Track 3

Filename G:\Temp\03 – Something To Do (Live).wav

Peak level 76.1 %
Track quality 100.0 %
Test CRC 36BCCF61
Copy CRC 36BCCF61
Accurately ripped (confidence 9) [10A7DD92]
Copy OK

Track 4

Filename G:\Temp\04 – Stripped (Live).wav

Peak level 85.1 %
Track quality 100.0 %
Test CRC FA73A82E
Copy CRC FA73A82E
Accurately ripped (confidence 9) [FED128AD]
Copy OK

Track 5

Filename G:\Temp\05 – More Than A Party (Live).wav

Pre-gap length 0:00:00.62

Peak level 79.4 %
Track quality 100.0 %
Test CRC 2ED0F300
Copy CRC 2ED0F300
Accurately ripped (confidence 9) [43CEC315]
Copy OK

Track 6

Filename G:\Temp\06 – A Question Of Time (Extended Remix).wav

Pre-gap length 0:00:01.17

Peak level 89.0 %
Track quality 100.0 %
Test CRC CFEF4D49
Copy CRC CFEF4D49
Accurately ripped (confidence 9) [5C3F6323]
Copy OK

Track 7

Filename G:\Temp\07 – Black Celebration (Black Tulip Mix).wav

Pre-gap length 0:00:01.73

Peak level 95.2 %
Track quality 100.0 %
Test CRC 3B8C4E57
Copy CRC 3B8C4E57
Accurately ripped (confidence 9) [1EF39002]
Copy OK

Track 8

Filename G:\Temp\08 – A Question Of Time (New Town Mix Live Remix).wav

Pre-gap length 0:00:01.04

Peak level 95.4 %
Track quality 99.9 %
Test CRC 0FBA2D22
Copy CRC 0FBA2D22
Accurately ripped (confidence 9) [915DCB89]
Copy OK

All tracks accurately ripped

No errors occurred

End of status report

Exact Audio Copy V0.99 prebeta 4 from 23. January 2008

EAC extraction logfile from 9. December 2008, 16:28

Depeche Mode / Shake The Disease (CDBONG 8)

Used drive : Optiarc DVD RW AD-5170A Adapter: 0 ID: 1

Read mode : Secure
Utilize accurate stream : Yes
Defeat audio cache : Yes
Make use of C2 pointers : No

Read offset correction : 48
Overread into Lead-In and Lead-Out : No
Fill up missing offset samples with silence : Yes
Delete leading and trailing silent blocks : No
Null samples used in CRC calculations : Yes
Used interface : Native Win32 interface for Win NT & 2000
Gap handling : Appended to previous track

Used output format : User Defined Encoder
Selected bitrate : 192 kBit/s
Quality : High
Add ID3 tag : No
Command line compressor : C:\Program Files (x86)\FLAC\flac.exe
Additional command line options : -8 -V -T “ARTIST=%a” -T “TITLE=%t” -T “ALBUM=%g” -T “DATE=%y” -T “TRACKNUMBER=%n” -T “GENRE=%m” -T “COMMENT=EAC FLAC -8” %s

TOC of the extracted CD

Track | Start | Length | Start sector | End sector
———————————————————
1 | 0:00.32 | 4:48.53 | 32 | 21684
2 | 4:49.10 | 3:11.37 | 21685 | 36046
3 | 8:00.47 | 8:46.25 | 36047 | 75521
4 | 16:46.72 | 6:16.60 | 75522 | 103781
5 | 23:03.57 | 7:11.20 | 103782 | 136126
6 | 30:15.02 | 7:26.55 | 136127 | 169631

Track 1

Filename G:\Temp\01 – Shake The Disease.wav

Pre-gap length 0:00:02.42

Peak level 100.0 %
Track quality 100.0 %
Test CRC 49C6A9B9
Copy CRC 49C6A9B9
Accurately ripped (confidence 13) [4AA69BC6]
Copy OK

Track 2

Filename G:\Temp\02 – Flexible.wav

Pre-gap length 0:00:00.84

Peak level 100.0 %
Track quality 100.0 %
Test CRC 8D5D92EE
Copy CRC 8D5D92EE
Accurately ripped (confidence 13) [BD5F74B6]
Copy OK

Track 3

Filename G:\Temp\03 – Shake The Disease (Remixed Extended).wav

Pre-gap length 0:00:01.46

Peak level 100.0 %
Track quality 99.9 %
Test CRC 853A5B45
Copy CRC 853A5B45
Accurately ripped (confidence 13) [9266549E]
Copy OK

Track 4

Filename G:\Temp\04 – Flexible (Remixed Extended).wav

Pre-gap length 0:00:01.26

Peak level 100.0 %
Track quality 100.0 %
Test CRC 88E87C3D
Copy CRC 88E87C3D
Accurately ripped (confidence 13) [27D77372]
Copy OK

Track 5

Filename G:\Temp\05 – Shake The Disease (Edit The Shake).wav

Pre-gap length 0:00:01.00

Peak level 79.7 %
Track quality 100.0 %
Test CRC 72337953
Copy CRC 72337953
Accurately ripped (confidence 13) [54F2E108]
Copy OK

Track 6

Filename G:\Temp\06 – Something To Do (Metal Mix).wav

Pre-gap length 0:00:01.42

Peak level 100.0 %
Track quality 99.8 %
Test CRC B676C63F
Copy CRC B676C63F
Accurately ripped (confidence 13) [9FE480C6]
Copy OK

All tracks accurately ripped

No errors occurred

End of status report

Exact Audio Copy V0.99 prebeta 4 from 23. January 2008

EAC extraction logfile from 9. December 2008, 16:43

Depeche Mode / A Question Of Lust (CDBONG 11)

Used drive : Optiarc DVD RW AD-5170A Adapter: 0 ID: 1

Read mode : Secure
Utilize accurate stream : Yes
Defeat audio cache : Yes
Make use of C2 pointers : No

Read offset correction : 48
Overread into Lead-In and Lead-Out : No
Fill up missing offset samples with silence : Yes
Delete leading and trailing silent blocks : No
Null samples used in CRC calculations : Yes
Used interface : Native Win32 interface for Win NT & 2000
Gap handling : Appended to previous track

Used output format : User Defined Encoder
Selected bitrate : 192 kBit/s
Quality : High
Add ID3 tag : No
Command line compressor : C:\Program Files (x86)\FLAC\flac.exe
Additional command line options : -8 -V -T “ARTIST=%a” -T “TITLE=%t” -T “ALBUM=%g” -T “DATE=%y” -T “TRACKNUMBER=%n” -T “GENRE=%m” -T “COMMENT=EAC FLAC -8” %s

TOC of the extracted CD

Track | Start | Length | Start sector | End sector
———————————————————
1 | 0:00.32 | 4:29.00 | 32 | 20206
2 | 4:29.32 | 4:51.20 | 20207 | 42051
3 | 9:20.52 | 5:39.48 | 42052 | 67524
4 | 15:00.25 | 4:23.35 | 67525 | 87284
5 | 19:23.60 | 2:48.15 | 87285 | 99899
6 | 22:12.00 | 6:47.52 | 99900 | 130476

Track 1

Filename G:\Temp\01 – A Question Of Lust.wav

Pre-gap length 0:00:02.42

Peak level 93.1 %
Track quality 100.0 %
Test CRC D47B154A
Copy CRC D47B154A
Accurately ripped (confidence 10) [61D4789D]
Copy OK

Track 2

Filename G:\Temp\02 – Christmas Island.wav

Pre-gap length 0:00:00.09

Peak level 90.7 %
Track quality 100.0 %
Test CRC 2B71DC7F
Copy CRC 2B71DC7F
Accurately ripped (confidence 10) [42E3276A]
Copy OK

Track 3

Filename G:\Temp\03 – Christmas Island (Extended).wav

Pre-gap length 0:00:00.60

Peak level 87.5 %
Track quality 100.0 %
Test CRC 193E9973
Copy CRC 193E9973
Accurately ripped (confidence 10) [5B446284]
Copy OK

Track 4

Filename G:\Temp\04 – People Are People (Live).wav

Pre-gap length 0:00:00.17

Peak level 96.7 %
Track quality 100.0 %
Test CRC 0FF657CF
Copy CRC 0FF657CF
Accurately ripped (confidence 10) [33D4F586]
Copy OK

Track 5

Filename G:\Temp\05 – It Doesn’t Matter Two (Instrumental).wav

Pre-gap length 0:00:00.70

Peak level 73.3 %
Track quality 100.0 %
Test CRC 93D5B1F6
Copy CRC 93D5B1F6
Accurately ripped (confidence 10) [94565E62]
Copy OK

Track 6

Filename G:\Temp\06 – A Question Of Lust (Minimal).wav

Pre-gap length 0:00:01.93

Peak level 100.0 %
Track quality 100.0 %
Test CRC 621B1907
Copy CRC 621B1907
Accurately ripped (confidence 10) [FB30FDF3]
Copy OK

All tracks accurately ripped

No errors occurred

End of status report

Exact Audio Copy V0.99 prebeta 4 from 23. January 2008

EAC extraction logfile from 9. December 2008, 17:33

Depeche Mode / Stripped (CDBONG 10)

Used drive : Optiarc DVD RW AD-5170A Adapter: 0 ID: 1

Read mode : Secure
Utilize accurate stream : Yes
Defeat audio cache : Yes
Make use of C2 pointers : No

Read offset correction : 48
Overread into Lead-In and Lead-Out : No
Fill up missing offset samples with silence : Yes
Delete leading and trailing silent blocks : No
Null samples used in CRC calculations : Yes
Used interface : Native Win32 interface for Win NT & 2000
Gap handling : Appended to previous track

Used output format : User Defined Encoder
Selected bitrate : 192 kBit/s
Quality : High
Add ID3 tag : No
Command line compressor : C:\Program Files (x86)\FLAC\flac.exe
Additional command line options : -8 -V -T “ARTIST=%a” -T “TITLE=%t” -T “ALBUM=%g” -T “DATE=%y” -T “TRACKNUMBER=%n” -T “GENRE=%m” -T “COMMENT=EAC FLAC -8” %s

TOC of the extracted CD

Track | Start | Length | Start sector | End sector
———————————————————
1 | 0:00.00 | 3:53.15 | 0 | 17489
2 | 3:53.15 | 4:17.40 | 17490 | 36804
3 | 8:10.55 | 6:42.27 | 36805 | 66981
4 | 14:53.07 | 5:14.33 | 66982 | 90564
5 | 20:07.40 | 6:06.12 | 90565 | 118026
6 | 26:13.52 | 4:25.18 | 118027 | 137919
7 | 30:38.70 | 2:37.15 | 137920 | 149709

Track 1

Filename G:\Temp\01 – Stripped.wav

Pre-gap length 0:00:02.00

Peak level 100.0 %
Track quality 100.0 %
Test CRC E924E511
Copy CRC E924E511
Accurately ripped (confidence 12) [528329E7]
Copy OK

Track 2

Filename G:\Temp\02 – But Not Tonight.wav

Pre-gap length 0:00:01.37

Peak level 80.1 %
Track quality 100.0 %
Test CRC 7C79A047
Copy CRC 7C79A047
Accurately ripped (confidence 12) [91708A26]
Copy OK

Track 3

Filename G:\Temp\03 – Stripped (Highland Mix).wav

Pre-gap length 0:00:01.30

Peak level 100.0 %
Track quality 100.0 %
Test CRC E9098EEE
Copy CRC E9098EEE
Accurately ripped (confidence 12) [E805379E]
Copy OK

Track 4

Filename G:\Temp\04 – But Not Tonight (Extended Remix).wav

Pre-gap length 0:00:01.13

Peak level 98.1 %
Track quality 99.9 %
Test CRC B1D10EEA
Copy CRC B1D10EEA
Accurately ripped (confidence 12) [19CDA8E1]
Copy OK

Track 5

Filename G:\Temp\05 – Breathing In Fumes.wav

Pre-gap length 0:00:01.26

Peak level 95.6 %
Track quality 100.0 %
Test CRC 9D2DBA0D
Copy CRC 9D2DBA0D
Accurately ripped (confidence 12) [8C7FABAD]
Copy OK

Track 6

Filename G:\Temp\06 – Fly On The Windscreen (Quiet Mix).wav

Pre-gap length 0:00:00.46

Peak level 81.0 %
Track quality 100.0 %
Test CRC A9AF3C6C
Copy CRC A9AF3C6C
Accurately ripped (confidence 12) [D41F35F2]
Copy OK

Track 7

Filename G:\Temp\07 – Black Day.wav

Pre-gap length 0:00:00.93

Peak level 77.0 %
Track quality 100.0 %
Test CRC FD73D5C1
Copy CRC FD73D5C1
Accurately ripped (confidence 12) [AAAA8787]
Copy OK

All tracks accurately ripped

No errors occurred

End of status report

REM COMMENT “CUETools generated dummy CUE sheet”
FILE “01 – A Question of Lust.flac” WAVE
TRACK 01 AUDIO
INDEX 01 00:00:00
FILE “02 – Christmas Island.flac” WAVE
TRACK 02 AUDIO
INDEX 01 00:00:00
FILE “03 – Christmas Island (Extended).flac” WAVE
TRACK 03 AUDIO
INDEX 01 00:00:00
FILE “04 – People Are People (Live).flac” WAVE
TRACK 04 AUDIO
INDEX 01 00:00:00
FILE “05 – It Doesn’t Matter Two (Instrumental).flac” WAVE
TRACK 05 AUDIO
INDEX 01 00:00:00
FILE “06 – A Question of Lust (Minimal).flac” WAVE
TRACK 06 AUDIO
INDEX 01 00:00:00

REM COMMENT “CUETools generated dummy CUE sheet”
FILE “01 – Shake the Disease.flac” WAVE
TRACK 01 AUDIO
INDEX 01 00:00:00
FILE “02 – Flexible.flac” WAVE
TRACK 02 AUDIO
INDEX 01 00:00:00
FILE “03 – Shake the Disease (Remixed Extended).flac” WAVE
TRACK 03 AUDIO
INDEX 01 00:00:00
FILE “04 – Flexible (Remixed Extended).flac” WAVE
TRACK 04 AUDIO
INDEX 01 00:00:00
FILE “05 – Shake the Disease (Edit the Shake).flac” WAVE
TRACK 05 AUDIO
INDEX 01 00:00:00
FILE “06 – Something to Do (Metal Mix).flac” WAVE
TRACK 06 AUDIO
INDEX 01 00:00:00

REM COMMENT “CUETools generated dummy CUE sheet”
FILE “01 – A Question of Time (Remix).flac” WAVE
TRACK 01 AUDIO
INDEX 01 00:00:00
FILE “02 – Black Celebration (Live).flac” WAVE
TRACK 02 AUDIO
INDEX 01 00:00:00
FILE “03 – Something to Do (Live).flac” WAVE
TRACK 03 AUDIO
INDEX 01 00:00:00
FILE “04 – Stripped (Live).flac” WAVE
TRACK 04 AUDIO
INDEX 01 00:00:00
FILE “05 – More Than a Party (Live).flac” WAVE
TRACK 05 AUDIO
INDEX 01 00:00:00
FILE “06 – A Question of Time (Extended Remix).flac” WAVE
TRACK 06 AUDIO
INDEX 01 00:00:00
FILE “07 – Black Celebration (Black Tulip Mix).flac” WAVE
TRACK 07 AUDIO
INDEX 01 00:00:00
FILE “08 – A Question of Time (New Town Mix Live Remix).flac” WAVE
TRACK 08 AUDIO
INDEX 01 00:00:00

REM COMMENT “CUETools generated dummy CUE sheet”
FILE “01 – Little 15.flac” WAVE
TRACK 01 AUDIO
INDEX 01 00:00:00
FILE “02 – St Jarna.flac” WAVE
TRACK 02 AUDIO
INDEX 01 00:00:00
FILE “03 – Sonata No 14 in C#m (Moonlight Sonata).flac” WAVE
TRACK 03 AUDIO
INDEX 01 00:00:00

REM COMMENT “CUETools generated dummy CUE sheet”
FILE “01 – It’s Called a Heart.flac” WAVE
TRACK 01 AUDIO
INDEX 01 00:00:00
FILE “02 – Fly on the Windscreen.flac” WAVE
TRACK 02 AUDIO
INDEX 01 00:00:00
FILE “03 – It’s Called a Heart (Extended).flac” WAVE
TRACK 03 AUDIO
INDEX 01 00:00:00
FILE “04 – Fly on the Windscreen (Extended).flac” WAVE
TRACK 04 AUDIO
INDEX 01 00:00:00
FILE “05 – Fly on the Windscreen (Death Mix).flac” WAVE
TRACK 05 AUDIO
INDEX 01 00:00:00

REM COMMENT “CUETools generated dummy CUE sheet”
FILE “01 – Stripped.flac” WAVE
TRACK 01 AUDIO
INDEX 01 00:00:00
FILE “02 – But Not Tonight.flac” WAVE
TRACK 02 AUDIO
INDEX 01 00:00:00
FILE “03 – Stripped (Highland Mix).flac” WAVE
TRACK 03 AUDIO
INDEX 01 00:00:00
FILE “04 – But Not Tonight (Extended Remix).flac” WAVE
TRACK 04 AUDIO
INDEX 01 00:00:00
FILE “05 – Breathing in Fumes.flac” WAVE
TRACK 05 AUDIO
INDEX 01 00:00:00
FILE “06 – Fly on the Windscreen (Quiet Mix).flac” WAVE
TRACK 06 AUDIO
INDEX 01 00:00:00
FILE “07 – Black Day.flac” WAVE
TRACK 07 AUDIO
INDEX 01 00:00:00


Leave a Reply

Your email address will not be published. Required fields are marked *

Enter the text from the image below
 

This site uses Akismet to reduce spam. Learn how your comment data is processed.