Depeche Mode – Singles 1-6




Artist: Depeche Mode
Year: 1991
Genre: Rock
Notes: Discogs
Add. Notes:
Cover incl.: Yes
Encoder: FLAC
Bitrate: ~800 kBit/s (44.1 kHz/16 Bit/s)
Log & Cue incl.: Yes
Size: 576,88 MB
Password: “slam” (without ” “)


All Downloads/Hosters are compatible

Download 1
Turbobit.net
KatFile.com
Rapidgator.net
Download 2
Turbobit.net
KatFile.com
Rapidgator.net

Tracklist:

Dreaming Of Me
Dreaming Of Me  3:46
Ice Machine  3:54
New Life
New Life (Remix)  3:59
Shout  3:46
Shout (Rio Mix)  7:33
Just Can't Get Enough
Just Can't Get Enough  3:45
Any Second Now  3:09
Just Can't Get Enough (Schizo Mix)  
6:48
Any Second Now (Altered)  5:42
See You
See You (Extended Version)  4:51
Now This Is Fun  3:25
Now This Is Fun (Extended Version)  
4:42
The Meaning Of Love
The Meaning Of Love  3:08
Oberkorn (It's A Small Town)  4:10
The Meaning Of Love (Fairly Odd 
Mix)  5:01
Oberkorn (It's A Small Town) 
(Development Mix)  7:38
Leave In Silence
Leave In Silence  4:02
Excerpt From: My Secret Garden  
3:16
Leave In Silence (Longer)  6:32
Further Excerpts From: My Secret 
Garden  4:23
Leave In Silence (Quieter)  3:42

EAC-Log, CUE-Sheed & NFO:

Click to open spoiler
Exact Audio Copy V0.99 prebeta 4 from 23. January 2008

EAC extraction logfile from 21. January 2009, 19:19

Depeche Mode / Just Can’t Get Enough (CDMUTE 16)

Used drive : Optiarc DVD RW AD-5170A Adapter: 0 ID: 1

Read mode : Secure
Utilize accurate stream : Yes
Defeat audio cache : Yes
Make use of C2 pointers : No

Read offset correction : 48
Overread into Lead-In and Lead-Out : No
Fill up missing offset samples with silence : Yes
Delete leading and trailing silent blocks : No
Null samples used in CRC calculations : Yes
Used interface : Native Win32 interface for Win NT & 2000
Gap handling : Appended to previous track

Used output format : User Defined Encoder
Selected bitrate : 192 kBit/s
Quality : High
Add ID3 tag : No
Command line compressor : C:\Program Files (x86)\FLAC\flac.exe
Additional command line options : -8 -V -T “ARTIST=%a” -T “TITLE=%t” -T “ALBUM=%g” -T “DATE=%y” -T “TRACKNUMBER=%n” -T “GENRE=%m” -T “COMMENT=EAC FLAC -8” %s

TOC of the extracted CD

Track | Start | Length | Start sector | End sector
———————————————————
1 | 0:00.32 | 3:45.20 | 32 | 16926
2 | 3:45.52 | 3:09.58 | 16927 | 31159
3 | 6:55.35 | 6:48.02 | 31160 | 61761
4 | 13:43.37 | 5:42.40 | 61762 | 87451

Track 1

Filename G:\Temp\01 – Just Can’t Get Enough.wav

Pre-gap length 0:00:02.42

Peak level 99.9 %
Track quality 100.0 %
Test CRC 1BAA9614
Copy CRC 1BAA9614
Accurately ripped (confidence 4) [F94A4733]
Copy OK

Track 2

Filename G:\Temp\02 – Any Second Now.wav

Pre-gap length 0:00:02.29

Peak level 85.3 %
Track quality 100.0 %
Test CRC 5C539727
Copy CRC 5C539727
Accurately ripped (confidence 4) [12854F7E]
Copy OK

Track 3

Filename G:\Temp\03 – Just Can’t Get Enough (Schizo Mix).wav

Pre-gap length 0:00:01.80

Peak level 100.0 %
Track quality 100.0 %
Test CRC CB18BC7F
Copy CRC CB18BC7F
Accurately ripped (confidence 4) [6D63EC18]
Copy OK

Track 4

Filename G:\Temp\04 – Any Second Now (Altered).wav

Pre-gap length 0:00:03.13

Peak level 90.2 %
Track quality 100.0 %
Test CRC 66CA80E8
Copy CRC 66CA80E8
Accurately ripped (confidence 4) [86B704A8]
Copy OK

All tracks accurately ripped

No errors occurred

End of status report

Exact Audio Copy V0.99 prebeta 4 from 23. January 2008

EAC extraction logfile from 21. January 2009, 18:37

Depeche Mode / New Life (CDMUTE 14)

Used drive : Optiarc DVD RW AD-5170A Adapter: 0 ID: 1

Read mode : Secure
Utilize accurate stream : Yes
Defeat audio cache : Yes
Make use of C2 pointers : No

Read offset correction : 48
Overread into Lead-In and Lead-Out : No
Fill up missing offset samples with silence : Yes
Delete leading and trailing silent blocks : No
Null samples used in CRC calculations : Yes
Used interface : Native Win32 interface for Win NT & 2000
Gap handling : Appended to previous track

Used output format : User Defined Encoder
Selected bitrate : 192 kBit/s
Quality : High
Add ID3 tag : No
Command line compressor : C:\Program Files (x86)\FLAC\flac.exe
Additional command line options : -8 -V -T “ARTIST=%a” -T “TITLE=%t” -T “ALBUM=%g” -T “DATE=%y” -T “TRACKNUMBER=%n” -T “GENRE=%m” -T “COMMENT=EAC FLAC -8” %s

TOC of the extracted CD

Track | Start | Length | Start sector | End sector
———————————————————
1 | 0:00.00 | 3:59.46 | 0 | 17970
2 | 3:59.46 | 3:46.14 | 17971 | 34934
3 | 7:45.60 | 7:34.54 | 34935 | 69038

Track 1

Filename G:\Temp\01 – New Life (Remix).wav

Pre-gap length 0:00:02.00

Peak level 100.0 %
Track quality 100.0 %
Test CRC E9820348
Copy CRC E9820348
Accurately ripped (confidence 4) [B919461B]
Copy OK

Track 2

Filename G:\Temp\02 – Shout (Single Version).wav

Peak level 96.5 %
Track quality 100.0 %
Test CRC E9318FCE
Copy CRC E9318FCE
Accurately ripped (confidence 4) [3C847FEF]
Copy OK

Track 3

Filename G:\Temp\03 – Shout (Rio Mix).wav

Peak level 100.0 %
Track quality 100.0 %
Test CRC 0146CD94
Copy CRC 0146CD94
Accurately ripped (confidence 4) [6AABFFD8]
Copy OK

All tracks accurately ripped

No errors occurred

End of status report

Exact Audio Copy V0.99 prebeta 4 from 23. January 2008

EAC extraction logfile from 21. January 2009, 19:55

Depeche Mode / The Meaning Of Love (CDMUTE 22)

Used drive : Optiarc DVD RW AD-5170A Adapter: 0 ID: 1

Read mode : Secure
Utilize accurate stream : Yes
Defeat audio cache : Yes
Make use of C2 pointers : No

Read offset correction : 48
Overread into Lead-In and Lead-Out : No
Fill up missing offset samples with silence : Yes
Delete leading and trailing silent blocks : No
Null samples used in CRC calculations : Yes
Used interface : Native Win32 interface for Win NT & 2000
Gap handling : Appended to previous track

Used output format : User Defined Encoder
Selected bitrate : 192 kBit/s
Quality : High
Add ID3 tag : No
Command line compressor : C:\Program Files (x86)\FLAC\flac.exe
Additional command line options : -8 -V -T “ARTIST=%a” -T “TITLE=%t” -T “ALBUM=%g” -T “DATE=%y” -T “TRACKNUMBER=%n” -T “GENRE=%m” -T “COMMENT=EAC FLAC -8” %s

TOC of the extracted CD

Track | Start | Length | Start sector | End sector
———————————————————
1 | 0:00.00 | 3:07.67 | 0 | 14091
2 | 3:07.67 | 4:10.52 | 14092 | 32893
3 | 7:18.44 | 5:01.39 | 32894 | 55507
4 | 12:20.08 | 7:40.26 | 55508 | 90033

Track 1

Filename G:\Temp\01 – The Meaning Of Love (Album Version).wav

Pre-gap length 0:00:02.00

Peak level 93.1 %
Track quality 100.0 %
Test CRC AB616181
Copy CRC AB616181
Accurately ripped (confidence 3) [8CEF9AD2]
Copy OK

Track 2

Filename G:\Temp\02 – Oberkorn (It’s A Small Town) (Single Version).wav

Peak level 62.7 %
Track quality 99.9 %
Test CRC 7AE0B79C
Copy CRC 7AE0B79C
Accurately ripped (confidence 3) [DBF18D26]
Copy OK

Track 3

Filename G:\Temp\03 – The Meaning Of Love (Fairly Odd Mix).wav

Peak level 94.3 %
Track quality 99.9 %
Test CRC C3397BC9
Copy CRC C3397BC9
Accurately ripped (confidence 3) [0ABAA600]
Copy OK

Track 4

Filename G:\Temp\04 – Oberkorn (It’s A Small Town) (Development Mix).wav

Peak level 72.0 %
Track quality 100.0 %
Test CRC 1EC1EC16
Copy CRC 1EC1EC16
Accurately ripped (confidence 3) [BF51803E]
Copy OK

All tracks accurately ripped

No errors occurred

End of status report

Exact Audio Copy V0.99 prebeta 4 from 23. January 2008

EAC extraction logfile from 21. January 2009, 18:17

Depeche Mode / Dreaming Of Me (CDMUTE 13)

Used drive : Optiarc DVD RW AD-5170A Adapter: 0 ID: 1

Read mode : Secure
Utilize accurate stream : Yes
Defeat audio cache : Yes
Make use of C2 pointers : No

Read offset correction : 48
Overread into Lead-In and Lead-Out : No
Fill up missing offset samples with silence : Yes
Delete leading and trailing silent blocks : No
Null samples used in CRC calculations : Yes
Used interface : Native Win32 interface for Win NT & 2000
Gap handling : Appended to previous track

Used output format : User Defined Encoder
Selected bitrate : 192 kBit/s
Quality : High
Add ID3 tag : No
Command line compressor : C:\Program Files (x86)\FLAC\flac.exe
Additional command line options : -8 -V -T “ARTIST=%a” -T “TITLE=%t” -T “ALBUM=%g” -T “DATE=%y” -T “TRACKNUMBER=%n” -T “GENRE=%m” -T “COMMENT=EAC FLAC -8″ %s

TOC of the extracted CD

Track | Start | Length | Start sector | End sector
———————————————————
1 | 0:00.00 | 3:47.06 | 0 | 17030
2 | 3:47.06 | 3:54.51 | 17031 | 34631

Track 1

Filename G:\Temp\01 – Dreaming Of Me (7” Version).wav

Pre-gap length 0:00:02.00

Peak level 100.0 %
Track quality 100.0 %
Test CRC FDB407FC
Copy CRC FDB407FC
Accurately ripped (confidence 5) [365CE9D3]
Copy OK

Track 2

Filename G:\Temp\02 – Ice Machine (7” Version).wav

Peak level 100.0 %
Track quality 99.9 %
Test CRC 4A5AFA06
Copy CRC 4A5AFA06
Accurately ripped (confidence 5) [5F6F377A]
Copy OK

All tracks accurately ripped

No errors occurred

End of status report

Exact Audio Copy V0.99 prebeta 4 from 23. January 2008

EAC extraction logfile from 21. January 2009, 20:11

Depeche Mode / Leave In Silence (CDBONG 1)

Used drive : Optiarc DVD RW AD-5170A Adapter: 0 ID: 1

Read mode : Secure
Utilize accurate stream : Yes
Defeat audio cache : Yes
Make use of C2 pointers : No

Read offset correction : 48
Overread into Lead-In and Lead-Out : No
Fill up missing offset samples with silence : Yes
Delete leading and trailing silent blocks : No
Null samples used in CRC calculations : Yes
Used interface : Native Win32 interface for Win NT & 2000
Gap handling : Appended to previous track

Used output format : User Defined Encoder
Selected bitrate : 192 kBit/s
Quality : High
Add ID3 tag : No
Command line compressor : C:\Program Files (x86)\FLAC\flac.exe
Additional command line options : -8 -V -T “ARTIST=%a” -T “TITLE=%t” -T “ALBUM=%g” -T “DATE=%y” -T “TRACKNUMBER=%n” -T “GENRE=%m” -T “COMMENT=EAC FLAC -8” %s

TOC of the extracted CD

Track | Start | Length | Start sector | End sector
———————————————————
1 | 0:00.00 | 4:02.14 | 0 | 18163
2 | 4:02.14 | 3:16.08 | 18164 | 32871
3 | 7:18.22 | 6:32.27 | 32872 | 62298
4 | 13:50.49 | 4:23.73 | 62299 | 82096
5 | 18:14.47 | 3:43.46 | 82097 | 98867

Track 1

Filename G:\Temp\01 – Leave In Silence.wav

Pre-gap length 0:00:02.00

Peak level 95.1 %
Track quality 100.0 %
Test CRC 6BC4A27F
Copy CRC 6BC4A27F
Accurately ripped (confidence 5) [112B1DFE]
Copy OK

Track 2

Filename G:\Temp\02 – Excerpt From My Secret Garden.wav

Peak level 100.0 %
Track quality 100.0 %
Test CRC 48677909
Copy CRC 48677909
Accurately ripped (confidence 5) [A39F5588]
Copy OK

Track 3

Filename G:\Temp\03 – Leave In Silence (Longer).wav

Peak level 100.0 %
Track quality 100.0 %
Test CRC C42DE448
Copy CRC C42DE448
Accurately ripped (confidence 5) [5444394F]
Copy OK

Track 4

Filename G:\Temp\04 – Further Excerpts From My Secret Garden.wav

Peak level 95.6 %
Track quality 99.9 %
Test CRC AA5BB677
Copy CRC AA5BB677
Accurately ripped (confidence 5) [05807B65]
Copy OK

Track 5

Filename G:\Temp\05 – Leave In Silence (Quieter).wav

Peak level 80.5 %
Track quality 99.9 %
Test CRC 316C068B
Copy CRC 316C068B
Accurately ripped (confidence 5) [FD6E82C4]
Copy OK

All tracks accurately ripped

No errors occurred

End of status report

Exact Audio Copy V0.99 prebeta 4 from 23. January 2008

EAC extraction logfile from 21. January 2009, 19:34

Depeche Mode / See You (CDMUTE 18)

Used drive : Optiarc DVD RW AD-5170A Adapter: 0 ID: 1

Read mode : Secure
Utilize accurate stream : Yes
Defeat audio cache : Yes
Make use of C2 pointers : No

Read offset correction : 48
Overread into Lead-In and Lead-Out : No
Fill up missing offset samples with silence : Yes
Delete leading and trailing silent blocks : No
Null samples used in CRC calculations : Yes
Used interface : Native Win32 interface for Win NT & 2000
Gap handling : Appended to previous track

Used output format : User Defined Encoder
Selected bitrate : 192 kBit/s
Quality : High
Add ID3 tag : No
Command line compressor : C:\Program Files (x86)\FLAC\flac.exe
Additional command line options : -8 -V -T “ARTIST=%a” -T “TITLE=%t” -T “ALBUM=%g” -T “DATE=%y” -T “TRACKNUMBER=%n” -T “GENRE=%m” -T “COMMENT=EAC FLAC -8” %s

TOC of the extracted CD

Track | Start | Length | Start sector | End sector
———————————————————
1 | 0:00.30 | 4:51.20 | 30 | 21874
2 | 4:51.50 | 3:25.60 | 21875 | 37309
3 | 8:17.35 | 4:42.35 | 37310 | 58494

Track 1

Filename G:\Temp\01 – See You (Extended Version).wav

Pre-gap length 0:00:02.40

Peak level 96.1 %
Track quality 100.0 %
Test CRC FCCF4F27
Copy CRC FCCF4F27
Accurately ripped (confidence 4) [49853370]
Copy OK

Track 2

Filename G:\Temp\02 – Now This Is Fun.wav

Pre-gap length 0:00:00.86

Peak level 79.9 %
Track quality 100.0 %
Test CRC DCDC654D
Copy CRC DCDC654D
Accurately ripped (confidence 4) [4FF3738F]
Copy OK

Track 3

Filename G:\Temp\03 – Now This Is Fun (Extended Version).wav

Pre-gap length 0:00:02.46

Peak level 89.0 %
Track quality 100.0 %
Test CRC 49F0B228
Copy CRC 49F0B228
Accurately ripped (confidence 4) [73096BA1]
Copy OK

All tracks accurately ripped

No errors occurred

End of status report

REM COMMENT “CUETools generated dummy CUE sheet”
FILE “01 – Just Can’t Get Enough.flac” WAVE
TRACK 01 AUDIO
INDEX 01 00:00:00
FILE “02 – Any Second Now.flac” WAVE
TRACK 02 AUDIO
INDEX 01 00:00:00
FILE “03 – Just Can’t Get Enough (Schizo Mix).flac” WAVE
TRACK 03 AUDIO
INDEX 01 00:00:00
FILE “04 – Any Second Now (Altered).flac” WAVE
TRACK 04 AUDIO
INDEX 01 00:00:00

REM COMMENT “CUETools generated dummy CUE sheet”
FILE “01 – New Life (Remix).flac” WAVE
TRACK 01 AUDIO
INDEX 01 00:00:00
FILE “02 – Shout (Single Version).flac” WAVE
TRACK 02 AUDIO
INDEX 01 00:00:00
FILE “03 – Shout (Rio Mix).flac” WAVE
TRACK 03 AUDIO
INDEX 01 00:00:00

REM COMMENT “CUETools generated dummy CUE sheet”
FILE “01 – The Meaning of Love (Album Version).flac” WAVE
TRACK 01 AUDIO
INDEX 01 00:00:00
FILE “02 – Oberkorn (It’s a Small Town) (Single Version).flac” WAVE
TRACK 02 AUDIO
INDEX 01 00:00:00
FILE “03 – The Meaning of Love (Fairly Odd Mix).flac” WAVE
TRACK 03 AUDIO
INDEX 01 00:00:00
FILE “04 – Oberkorn (It’s a Small Town) (Development Mix).flac” WAVE
TRACK 04 AUDIO
INDEX 01 00:00:00

REM COMMENT “CUETools generated dummy CUE sheet”
FILE “01 – Dreaming of Me (7” Version).flac” WAVE
TRACK 01 AUDIO
INDEX 01 00:00:00
FILE “02 – Ice Machine (7” Version).flac” WAVE
TRACK 02 AUDIO
INDEX 01 00:00:00

REM COMMENT “CUETools generated dummy CUE sheet”
FILE “01 – Leave in Silence.flac” WAVE
TRACK 01 AUDIO
INDEX 01 00:00:00
FILE “02 – Excerpt from My Secret Garden.flac” WAVE
TRACK 02 AUDIO
INDEX 01 00:00:00
FILE “03 – Leave in Silence (Longer).flac” WAVE
TRACK 03 AUDIO
INDEX 01 00:00:00
FILE “04 – Further Excerpts from My Secret Garden.flac” WAVE
TRACK 04 AUDIO
INDEX 01 00:00:00
FILE “05 – Leave in Silence (Quieter).flac” WAVE
TRACK 05 AUDIO
INDEX 01 00:00:00


Leave a Reply

Your email address will not be published. Required fields are marked *

Enter the text from the image below
 

This site uses Akismet to reduce spam. Learn how your comment data is processed.