Depeche Mode – Remixes 81 – 04




Artist: Depeche Mode
Year: 2004
Genre: Rock
Notes: Discogs
Add. Notes:
Cover incl.: Yes
Encoder: FLAC
Bitrate: ~1000 kBit/s (44.1 kHz/16 Bit/s)
Log & Cue incl.: Yes
Size: 1658,71 MB
Password: “slam” (without ” “)


All Downloads/Hosters are compatible

Download 1
Turbobit.net
KatFile.com
Rapidgator.net
Download 2
Turbobit.net
KatFile.com
Rapidgator.net

Tracklist:

1-01 - Never Let Me Down Again 
(Split Mix) - 9:31
1-02 - Policy Of Truth (Capitol Mix) - 
8:00
1-03 - Shout (Rio Remix) - 7:31
1-04 - Home (Air ‘Around The Golf’ 
Remix) - 3:55
1-05 - Strangelove (Blind Mix) - 6:33
1-06 - Rush (Spiritual Guidance Mix) - 
5:26
1-07 - I Feel You (Renegade 
Soundwave Afghan Surgery 
Mix) - 4:57
1-08 - Barrel Of A Gun (Underworld 
Hard Mix) - 9:36
1-09 - Route 66 (Beatmasters Mix) - 
6:18
1-10 - Freelove (DJ Muggs Remix) - 
4:23
1-11 - I Feel Loved (Chamber’s 
Remix) - 6:16
1-12 - Just Can’t Get Enough (Schizo 
Mix) - 6:46
2-01 - Personal Jesus (Pump Mix) - 
7:47
2-02 - World In My Eyes (Mode To 
Joy) - 6:28
2-03 - Get The Balance Right! 
(Combination Mix) - 7:55
2-04 - Everything Counts (Absolut 
Mix) - 6:02
2-05 - Breathing In Fumes - 6:05
2-06 - Pain Killer (Kill The Pain DJ 
Shadow vs. Depeche 
Mode) - 6:29
2-07 - Useless (The Kruder + 
Dorfmeister Session ™) - 
9:05
2-08 - In Your Room (The Jeep Rock 
Mix) - 6:19
2-09 - Dream On (Dave Clarke 
Acoustic Version) - 4:24
2-10 - It’s No Good (Speedy J Mix) - 
5:01
2-11 - Master And Servant (An On-
USound Science 
Fiction Dance Hall Classic) - 4:35
2-12 - Enjoy The Silence (Timo Maas 
Extended Mix) - 8:43
3-01 - A Question Of Lust (Remix) - 
5:09
3-02 - Walking In My Shoes (Random 
Carpet Mix (Full 
Length)) - 8:36
3-03 - Are People People? - 4:28
3-04 - World In My Eyes (Daniel Miller 
Mix) - 4:37
3-05 - I Feel Loved (Danny Tenaglia’s 
Labor Of Love Dub 
(Edit)) - 11:22
3-06 - It’s No Good (Club 69 Future 
Mix) - 8:50
3-07 - Photographic (Rex The Dog 
Dubb Mix) - 6:20
3-08 - Little 15 (Ulrich Schnauss 
Remix) - 4:51
3-09 - Nothing (Headcleanr Rock 
Mix) - 3:30
3-10 - Lie To Me (‘The Pleasure Of 
Her Private Shame’ 
Remix By LFO) - 6:35
3-11 - Clean (Colder Version) - 7:11
3-12 - Halo (Goldfrapp Remix) - 4:23
3-13 - Enjoy The Silence 
(Reinterpreted) - 3:33

EAC-Log, CUE-Sheed & NFO:

Click to open spoiler
Exact Audio Copy V0.99 prebeta 5 from 4. May 2009

EAC extraction logfile from 11. February 2011, 1:33

Depeche Mode / Remixes 81…04 (CD1)

Used drive : ATAPI iHAP122 9 Adapter: 0 ID: 1

Read mode : Secure
Utilize accurate stream : Yes
Defeat audio cache : Yes
Make use of C2 pointers : No

Read offset correction : 6
Overread into Lead-In and Lead-Out : No
Fill up missing offset samples with silence : Yes
Delete leading and trailing silent blocks : No
Null samples used in CRC calculations : Yes
Used interface : Native Win32 interface for Win NT & 2000
Gap handling : Appended to previous track

Used output format : User Defined Encoder
Selected bitrate : 128 kBit/s
Quality : High
Add ID3 tag : No
Command line compressor : C:\Program Files\Exact Audio Copy\Flac\flac.exe
Additional command line options : -8 -V -T “ARTIST=%a” -T “TITLE=%t” -T “ALBUM=%g” -T “DATE=%y” -T “TRACKNUMBER=%n” -T “TOTALTRACKS=%x” -T “GENRE=%m” -T “ALBUMARTIST=%v” -T “ALBUM ARTIST=%v” -T “COMMENT=EAC Secure Mode, Test & Copy, AccurateRip, FLAC -8” %s

TOC of the extracted CD

Track | Start | Length | Start sector | End sector
———————————————————
1 | 0:00.00 | 9:31.63 | 0 | 42887
2 | 9:31.63 | 8:00.12 | 42888 | 78899
3 | 17:32.00 | 7:31.28 | 78900 | 112752
4 | 25:03.28 | 3:55.07 | 112753 | 130384
5 | 28:58.35 | 6:33.08 | 130385 | 159867
6 | 35:31.43 | 5:26.65 | 159868 | 184382
7 | 40:58.33 | 4:57.40 | 184383 | 206697
8 | 45:55.73 | 9:36.12 | 206698 | 249909
9 | 55:32.10 | 6:18.03 | 249910 | 278262
10 | 61:50.13 | 4:23.51 | 278263 | 298038
11 | 66:13.64 | 6:16.43 | 298039 | 326281
12 | 72:30.32 | 6:46.31 | 326282 | 356762

Track 1

Filename C:\Program Files\Exact Audio Copy\Flac\01 – Never Let Me Down Again (Split Mix).wav

Pre-gap length 0:00:02.00

Peak level 100.0 %
Track quality 100.0 %
Test CRC 40FA9721
Copy CRC 40FA9721
Accurately ripped (confidence 200) [12F9B8C7]
Copy OK

Track 2

Filename C:\Program Files\Exact Audio Copy\Flac\02 – Policy Of Truth (Capitol Mix).wav

Peak level 100.0 %
Track quality 99.9 %
Test CRC 6EC6E6E1
Copy CRC 6EC6E6E1
Accurately ripped (confidence 200) [E39BFD85]
Copy OK

Track 3

Filename C:\Program Files\Exact Audio Copy\Flac\03 – Shout (Rio Remix).wav

Peak level 100.0 %
Track quality 100.0 %
Test CRC 75B8B932
Copy CRC 75B8B932
Accurately ripped (confidence 200) [A6A1267E]
Copy OK

Track 4

Filename C:\Program Files\Exact Audio Copy\Flac\04 – Home (Air ‘Around The Golf’ Remix).wav

Pre-gap length 0:00:02.37

Peak level 100.0 %
Track quality 99.9 %
Test CRC 3145B2AA
Copy CRC 3145B2AA
Accurately ripped (confidence 200) [E57069D9]
Copy OK

Track 5

Filename C:\Program Files\Exact Audio Copy\Flac\05 – Strangelove (Blind Mix).wav

Pre-gap length 0:00:00.04

Peak level 100.0 %
Track quality 100.0 %
Test CRC F6EBEA76
Copy CRC F6EBEA76
Accurately ripped (confidence 200) [C20D6AA6]
Copy OK

Track 6

Filename C:\Program Files\Exact Audio Copy\Flac\06 – Rush (Spiritual Guidance Mix).wav

Pre-gap length 0:00:01.42

Peak level 100.0 %
Track quality 100.0 %
Test CRC D5EB3748
Copy CRC D5EB3748
Accurately ripped (confidence 200) [99B9735C]
Copy OK

Track 7

Filename C:\Program Files\Exact Audio Copy\Flac\07 – I Feel You (Renegade Soundwave Afghan Surgery Mix).wav

Peak level 100.0 %
Track quality 99.9 %
Test CRC 49317E0A
Copy CRC 49317E0A
Accurately ripped (confidence 200) [9CD519BF]
Copy OK

Track 8

Filename C:\Program Files\Exact Audio Copy\Flac\08 – Barrel Of A Gun (Underworld Hard Mix).wav

Pre-gap length 0:00:00.92

Peak level 100.0 %
Track quality 100.0 %
Test CRC A0B91405
Copy CRC A0B91405
Accurately ripped (confidence 200) [D8DBF712]
Copy OK

Track 9

Filename C:\Program Files\Exact Audio Copy\Flac\09 – Route 66 (Beatmasters Mix).wav

Pre-gap length 0:00:00.01

Peak level 100.0 %
Track quality 100.0 %
Test CRC CC0D7796
Copy CRC CC0D7796
Accurately ripped (confidence 200) [4E79E5D9]
Copy OK

Track 10

Filename C:\Program Files\Exact Audio Copy\Flac\10 – Freelove (DJ Muggs Remix).wav

Peak level 100.0 %
Track quality 99.9 %
Test CRC 5EC4F7CC
Copy CRC 5EC4F7CC
Accurately ripped (confidence 200) [C0728A8D]
Copy OK

Track 11

Filename C:\Program Files\Exact Audio Copy\Flac\11 – I Feel Loved (Chamber’s Remix).wav

Pre-gap length 0:00:00.22

Peak level 100.0 %
Track quality 99.9 %
Test CRC 8083FB58
Copy CRC 8083FB58
Accurately ripped (confidence 200) [BAD2DE3A]
Copy OK

Track 12

Filename C:\Program Files\Exact Audio Copy\Flac\12 – Just Can’t Get Enough (Schizo Mix).wav

Peak level 100.0 %
Track quality 100.0 %
Test CRC FBD63BC0
Copy CRC FBD63BC0
Accurately ripped (confidence 197) [BC04CE6A]
Copy OK

All tracks accurately ripped

No errors occurred

End of status report

Exact Audio Copy V0.99 prebeta 5 from 4. May 2009

EAC extraction logfile from 11. February 2011, 11:25

Depeche Mode / Remixes 81..04 – CD 2

Used drive : ATAPI iHAP122 9 Adapter: 0 ID: 1

Read mode : Secure
Utilize accurate stream : Yes
Defeat audio cache : Yes
Make use of C2 pointers : No

Read offset correction : 6
Overread into Lead-In and Lead-Out : No
Fill up missing offset samples with silence : Yes
Delete leading and trailing silent blocks : No
Null samples used in CRC calculations : Yes
Used interface : Native Win32 interface for Win NT & 2000
Gap handling : Appended to previous track

Used output format : User Defined Encoder
Selected bitrate : 128 kBit/s
Quality : High
Add ID3 tag : No
Command line compressor : C:\Program Files\Exact Audio Copy\Flac\flac.exe
Additional command line options : -8 -V -T “ARTIST=%a” -T “TITLE=%t” -T “ALBUM=%g” -T “DATE=%y” -T “TRACKNUMBER=%n” -T “TOTALTRACKS=%x” -T “GENRE=%m” -T “ALBUMARTIST=%v” -T “ALBUM ARTIST=%v” -T “COMMENT=EAC Secure Mode, Test & Copy, AccurateRip, FLAC -8” %s

TOC of the extracted CD

Track | Start | Length | Start sector | End sector
———————————————————
1 | 0:00.00 | 7:47.53 | 0 | 35077
2 | 7:47.53 | 6:28.10 | 35078 | 64187
3 | 14:15.63 | 7:55.47 | 64188 | 99859
4 | 22:11.35 | 6:02.13 | 99860 | 127022
5 | 28:13.48 | 6:05.72 | 127023 | 154469
6 | 34:19.45 | 6:29.26 | 154470 | 183670
7 | 40:48.71 | 9:05.72 | 183671 | 224617
8 | 49:54.68 | 6:19.62 | 224618 | 253104
9 | 56:14.55 | 4:24.38 | 253105 | 272942
10 | 60:39.18 | 5:01.67 | 272943 | 295584
11 | 65:41.10 | 4:35.43 | 295585 | 316252
12 | 70:16.53 | 8:43.43 | 316253 | 355520

Track 1

Filename C:\Program Files\Exact Audio Copy\Flac\01 – Personal Jesus (Pump Mix).wav

Pre-gap length 0:00:02.00

Peak level 100.0 %
Track quality 100.0 %
Test CRC CC87F1CD
Copy CRC CC87F1CD
Accurately ripped (confidence 200) [189B38E5]
Copy OK

Track 2

Filename C:\Program Files\Exact Audio Copy\Flac\02 – World In My Eyes (Mode To Joy Mix).wav

Peak level 100.0 %
Track quality 100.0 %
Test CRC 26C7D78F
Copy CRC 26C7D78F
Accurately ripped (confidence 200) [C9C31FCB]
Copy OK

Track 3

Filename C:\Program Files\Exact Audio Copy\Flac\03 – Get The Balance Right! (Combination Mix).wav

Pre-gap length 0:00:00.58

Peak level 100.0 %
Track quality 100.0 %
Test CRC 62E15406
Copy CRC 62E15406
Accurately ripped (confidence 200) [54749573]
Copy OK

Track 4

Filename C:\Program Files\Exact Audio Copy\Flac\04 – Everything Counts (Absolut Mix).wav

Pre-gap length 0:00:00.02

Peak level 100.0 %
Track quality 100.0 %
Test CRC 52C2FD5D
Copy CRC 52C2FD5D
Accurately ripped (confidence 200) [9C8D2745]
Copy OK

Track 5

Filename C:\Program Files\Exact Audio Copy\Flac\05 – Breathing In Fumes.wav

Pre-gap length 0:00:00.20

Peak level 100.0 %
Track quality 100.0 %
Test CRC 8EED4A3E
Copy CRC 8EED4A3E
Accurately ripped (confidence 200) [6C6BE42F]
Copy OK

Track 6

Filename C:\Program Files\Exact Audio Copy\Flac\06 – Painkiller – Kill The Pain {DJ Shadow vs. Depeche Mode}.wav

Pre-gap length 0:00:01.18

Peak level 100.0 %
Track quality 100.0 %
Test CRC DF8EB17C
Copy CRC DF8EB17C
Accurately ripped (confidence 200) [BA9DB2C9]
Copy OK

Track 7

Filename C:\Program Files\Exact Audio Copy\Flac\07 – Useless {The Kruder + Dorfmeister Session}.wav

Peak level 99.3 %
Track quality 100.0 %
Test CRC 0854C53D
Copy CRC 0854C53D
Accurately ripped (confidence 200) [18525D8E]
Copy OK

Track 8

Filename C:\Program Files\Exact Audio Copy\Flac\08 – In Your Room (The Jeep Rock Mix).wav

Pre-gap length 0:00:00.49

Peak level 100.0 %
Track quality 100.0 %
Test CRC D7FABF6A
Copy CRC D7FABF6A
Accurately ripped (confidence 200) [6C01AC23]
Copy OK

Track 9

Filename C:\Program Files\Exact Audio Copy\Flac\09 – Dream On (Dave Clarke Acoustic Version).wav

Pre-gap length 0:00:01.49

Peak level 91.6 %
Track quality 100.0 %
Test CRC 57D9C353
Copy CRC 57D9C353
Accurately ripped (confidence 200) [BFB7CDB8]
Copy OK

Track 10

Filename C:\Program Files\Exact Audio Copy\Flac\10 – It’s No Good (Speedy J Mix).wav

Pre-gap length 0:00:01.74

Peak level 100.0 %
Track quality 100.0 %
Test CRC 0FC02A4C
Copy CRC 0FC02A4C
Accurately ripped (confidence 200) [45EF4D29]
Copy OK

Track 11

Filename C:\Program Files\Exact Audio Copy\Flac\11 – Master And Servant {An ON-USound Science Fiction Dance Hall Classic}.wav

Pre-gap length 0:00:00.10

Peak level 100.0 %
Track quality 100.0 %
Test CRC 6D7BD2CE
Copy CRC 6D7BD2CE
Accurately ripped (confidence 200) [0E61B044]
Copy OK

Track 12

Filename C:\Program Files\Exact Audio Copy\Flac\12 – Enjoy The Silence (Timo Maas Extended Mix).wav

Pre-gap length 0:00:00.93

Peak level 100.0 %
Track quality 100.0 %
Test CRC 0447C0DB
Copy CRC 0447C0DB
Accurately ripped (confidence 199) [0F73FE2A]
Copy OK

All tracks accurately ripped

No errors occurred

End of status report

Exact Audio Copy V0.99 prebeta 5 from 4. May 2009

EAC extraction logfile from 11. February 2011, 16:57

Depeche Mode / Remixes 81…04 (CD3)

Used drive : ATAPI iHAP122 9 Adapter: 0 ID: 1

Read mode : Secure
Utilize accurate stream : Yes
Defeat audio cache : Yes
Make use of C2 pointers : No

Read offset correction : 6
Overread into Lead-In and Lead-Out : No
Fill up missing offset samples with silence : Yes
Delete leading and trailing silent blocks : No
Null samples used in CRC calculations : Yes
Used interface : Native Win32 interface for Win NT & 2000
Gap handling : Appended to previous track

Used output format : User Defined Encoder
Selected bitrate : 128 kBit/s
Quality : High
Add ID3 tag : No
Command line compressor : C:\Program Files\Exact Audio Copy\Flac\flac.exe
Additional command line options : -8 -V -T “ARTIST=%a” -T “TITLE=%t” -T “ALBUM=%g” -T “DATE=%y” -T “TRACKNUMBER=%n” -T “TOTALTRACKS=%x” -T “GENRE=%m” -T “ALBUMARTIST=%v” -T “ALBUM ARTIST=%v” -T “COMMENT=EAC Secure Mode, Test & Copy, AccurateRip, FLAC -8” %s

TOC of the extracted CD

Track | Start | Length | Start sector | End sector
———————————————————
1 | 0:00.00 | 5:09.31 | 0 | 23205
2 | 5:09.31 | 8:36.63 | 23206 | 61968
3 | 13:46.19 | 4:28.56 | 61969 | 82124
4 | 18:15.00 | 4:37.54 | 82125 | 102953
5 | 22:52.54 | 11:22.27 | 102954 | 154130
6 | 34:15.06 | 8:50.45 | 154131 | 193925
7 | 43:05.51 | 6:20.49 | 193926 | 222474
8 | 49:26.25 | 4:51.35 | 222475 | 244334
9 | 54:17.60 | 3:30.41 | 244335 | 260125
10 | 57:48.26 | 6:35.60 | 260126 | 289810
11 | 64:24.11 | 7:11.25 | 289811 | 322160
12 | 71:35.36 | 4:23.48 | 322161 | 341933
13 | 75:59.09 | 3:33.34 | 341934 | 357942

Track 1

Filename C:\Program Files\Exact Audio Copy\Flac\01 – A Question Of Lust (Remix).wav

Pre-gap length 0:00:02.00

Peak level 100.0 %
Track quality 100.0 %
Test CRC 42169471
Copy CRC 42169471
Accurately ripped (confidence 174) [0642837B]
Copy OK

Track 2

Filename C:\Program Files\Exact Audio Copy\Flac\02 – Walking In My Shoes (Random Carpet Mix – Full Length).wav

Pre-gap length 0:00:00.78

Peak level 100.0 %
Track quality 100.0 %
Test CRC 24B0F14D
Copy CRC 24B0F14D
Accurately ripped (confidence 173) [AACC732D]
Copy OK

Track 3

Filename C:\Program Files\Exact Audio Copy\Flac\03 – Are People People .wav

Pre-gap length 0:00:00.36

Peak level 100.0 %
Track quality 100.0 %
Test CRC 8F3A4CDF
Copy CRC 8F3A4CDF
Accurately ripped (confidence 169) [B2000DA8]
Copy OK

Track 4

Filename C:\Program Files\Exact Audio Copy\Flac\04 – World In My Eyes (Daniel Miller Remix).wav

Pre-gap length 0:00:00.66

Peak level 100.0 %
Track quality 100.0 %
Test CRC 70CC8B39
Copy CRC 70CC8B39
Accurately ripped (confidence 173) [9454D700]
Copy OK

Track 5

Filename C:\Program Files\Exact Audio Copy\Flac\05 – I Feel Loved (Danny Tenaglia’s Labor Of Love Dub Edit).wav

Pre-gap length 0:00:01.06

Peak level 100.0 %
Track quality 100.0 %
Test CRC 0D26E82E
Copy CRC 0D26E82E
Accurately ripped (confidence 173) [B538C762]
Copy OK

Track 6

Filename C:\Program Files\Exact Audio Copy\Flac\06 – It’s No Good (Club 69 Future Mix).wav

Pre-gap length 0:00:00.88

Peak level 100.0 %
Track quality 99.9 %
Test CRC 33B4445D
Copy CRC 33B4445D
Accurately ripped (confidence 169) [BC9661B7]
Copy OK

Track 7

Filename C:\Program Files\Exact Audio Copy\Flac\07 – Photographic (Rex The Dog Dubb Mix).wav

Pre-gap length 0:00:01.24

Peak level 100.0 %
Track quality 100.0 %
Test CRC F670CFDA
Copy CRC F670CFDA
Accurately ripped (confidence 169) [8088E052]
Copy OK

Track 8

Filename C:\Program Files\Exact Audio Copy\Flac\08 – Little 15 (Ulrich Schnauss Remix).wav

Pre-gap length 0:00:00.62

Peak level 100.0 %
Track quality 100.0 %
Test CRC 100707B8
Copy CRC 100707B8
Accurately ripped (confidence 172) [74819AC8]
Copy OK

Track 9

Filename C:\Program Files\Exact Audio Copy\Flac\09 – Nothing (Headclean Rock Mix).wav

Pre-gap length 0:00:00.10

Peak level 100.0 %
Track quality 100.0 %
Test CRC 315D9959
Copy CRC 315D9959
Accurately ripped (confidence 168) [D1A1CCD1]
Copy OK

Track 10

Filename C:\Program Files\Exact Audio Copy\Flac\10 – Lie To Me (‘The Pleasure Of Her Private Shame’ – Remix By LFO).wav

Pre-gap length 0:00:00.33

Peak level 100.0 %
Track quality 99.9 %
Test CRC 110D53D0
Copy CRC 110D53D0
Accurately ripped (confidence 170) [2B51E749]
Copy OK

Track 11

Filename C:\Program Files\Exact Audio Copy\Flac\11 – Clean (Colder Version).wav

Pre-gap length 0:00:02.58

Peak level 100.0 %
Track quality 99.9 %
Test CRC 671F02BB
Copy CRC 671F02BB
Accurately ripped (confidence 173) [553D6D16]
Copy OK

Track 12

Filename C:\Program Files\Exact Audio Copy\Flac\12 – Halo (Goldfrapp Remix).wav

Pre-gap length 0:00:02.08

Peak level 100.0 %
Track quality 99.9 %
Test CRC DC205DDE
Copy CRC DC205DDE
Accurately ripped (confidence 170) [729692B0]
Copy OK

Track 13

Filename C:\Program Files\Exact Audio Copy\Flac\13 – Enjoy The Silence {Reinterpreted}.wav

Pre-gap length 0:00:02.00

Peak level 100.0 %
Track quality 100.0 %
Test CRC BF5DF330
Copy CRC BF5DF330
Accurately ripped (confidence 165) [948ED8B8]
Copy OK

All tracks accurately ripped

No errors occurred

End of status report

REM COMMENT “CUETools generated dummy CUE sheet”
FILE “01 – Never Let Me Down Again (Split Mix).flac” WAVE
TRACK 01 AUDIO
INDEX 01 00:00:00
FILE “02 – Policy of Truth (Capitol Mix).flac” WAVE
TRACK 02 AUDIO
INDEX 01 00:00:00
FILE “03 – Shout (Rio Remix).flac” WAVE
TRACK 03 AUDIO
INDEX 01 00:00:00
FILE “04 – Home (Air ‘Around the Golf’ Remix).flac” WAVE
TRACK 04 AUDIO
INDEX 01 00:00:00
FILE “05 – Strangelove (Blind Mix).flac” WAVE
TRACK 05 AUDIO
INDEX 01 00:00:00
FILE “06 – Rush (Spiritual Guidance Mix).flac” WAVE
TRACK 06 AUDIO
INDEX 01 00:00:00
FILE “07 – I Feel You (Renegade Soundwave Afghan Surgery Mix).flac” WAVE
TRACK 07 AUDIO
INDEX 01 00:00:00
FILE “08 – Barrel of a Gun (Underworld Hard Mix).flac” WAVE
TRACK 08 AUDIO
INDEX 01 00:00:00
FILE “09 – Route 66 (Beatmasters Mix).flac” WAVE
TRACK 09 AUDIO
INDEX 01 00:00:00
FILE “10 – Freelove (DJ Muggs Remix).flac” WAVE
TRACK 10 AUDIO
INDEX 01 00:00:00
FILE “11 – I Feel Loved (Chamber’s Remix).flac” WAVE
TRACK 11 AUDIO
INDEX 01 00:00:00
FILE “12 – Just Can’t Get Enough (Schizo Mix).flac” WAVE
TRACK 12 AUDIO
INDEX 01 00:00:00

REM COMMENT “CUETools generated dummy CUE sheet”
FILE “01 – Personal Jesus (Pump Mix).flac” WAVE
TRACK 01 AUDIO
INDEX 01 00:00:00
FILE “02 – World in My Eyes (Mode to Joy Mix).flac” WAVE
TRACK 02 AUDIO
INDEX 01 00:00:00
FILE “03 – Get the Balance Right! (Combination Mix).flac” WAVE
TRACK 03 AUDIO
INDEX 01 00:00:00
FILE “04 – Everything Counts (Absolut Mix).flac” WAVE
TRACK 04 AUDIO
INDEX 01 00:00:00
FILE “05 – Breathing in Fumes.flac” WAVE
TRACK 05 AUDIO
INDEX 01 00:00:00
FILE “06 – Painkiller (Kill the Pain – DJ Shadow vs. Depeche Mode).flac” WAVE
TRACK 06 AUDIO
INDEX 01 00:00:00
FILE “07 – Useless (The Kruder + Dorfmeister Session).flac” WAVE
TRACK 07 AUDIO
INDEX 01 00:00:00
FILE “08 – In Your Room (The Jeep Rock Mix).flac” WAVE
TRACK 08 AUDIO
INDEX 01 00:00:00
FILE “09 – Dream On (Dave Clarke Acoustic Version).flac” WAVE
TRACK 09 AUDIO
INDEX 01 00:00:00
FILE “10 – It’s No Good (Speedy J Mix).flac” WAVE
TRACK 10 AUDIO
INDEX 01 00:00:00
FILE “11 – Master and Servant (An ON-USound Science Fiction Dance Hall Classic).flac” WAVE
TRACK 11 AUDIO
INDEX 01 00:00:00
FILE “12 – Enjoy the Silence (Timo Maas Extended Mix).flac” WAVE
TRACK 12 AUDIO
INDEX 01 00:00:00

REM COMMENT “CUETools generated dummy CUE sheet”
FILE “01 – A Question of Lust (Remix).flac” WAVE
TRACK 01 AUDIO
INDEX 01 00:00:00
FILE “02 – Walking in My Shoes (Random Carpet Mix – Full Length).flac” WAVE
TRACK 02 AUDIO
INDEX 01 00:00:00
FILE “03 – Are People People_.flac” WAVE
TRACK 03 AUDIO
INDEX 01 00:00:00
FILE “04 – World in My Eyes (Daniel Miller Remix).flac” WAVE
TRACK 04 AUDIO
INDEX 01 00:00:00
FILE “05 – I Feel Loved (Danny Tenaglia’s Labor of Love Dub Edit).flac” WAVE
TRACK 05 AUDIO
INDEX 01 00:00:00
FILE “06 – It’s No Good (Club 69 Future Mix).flac” WAVE
TRACK 06 AUDIO
INDEX 01 00:00:00
FILE “07 – Photographic (Rex the Dog Dubb Mix).flac” WAVE
TRACK 07 AUDIO
INDEX 01 00:00:00
FILE “08 – Little 15 (Ulrich Schnauss Remix).flac” WAVE
TRACK 08 AUDIO
INDEX 01 00:00:00
FILE “09 – Nothing (Headclean Rock Mix).flac” WAVE
TRACK 09 AUDIO
INDEX 01 00:00:00
FILE “10 – Lie to Me (‘The Pleasure of Her Private Shame’ Remix by LFO).flac” WAVE
TRACK 10 AUDIO
INDEX 01 00:00:00
FILE “11 – Clean (Colder Version).flac” WAVE
TRACK 11 AUDIO
INDEX 01 00:00:00
FILE “12 – Halo (Goldfrapp Remix).flac” WAVE
TRACK 12 AUDIO
INDEX 01 00:00:00
FILE “13 – Enjoy the Silence (Reinterpreted).flac” WAVE
TRACK 13 AUDIO
INDEX 01 00:00:00


Leave a Reply

Your email address will not be published. Required fields are marked *

This site uses Akismet to reduce spam. Learn how your comment data is processed.