Depeche Mode – Remixes 2. 81-11




Artist: Depeche Mode
Year: 2011
Genre: Rock
Notes: Discogs
Add. Notes:
Cover incl.: Yes
Encoder: FLAC
Bitrate: ~900 kBit/s (44.1 kHz/16 Bit/s)
Log & Cue incl.: Yes
Size: 1553,64 MB
Password: “slam” (without ” “)


All Downloads/Hosters are compatible

Download 1
Turbobit.net
KatFile.com
Rapidgator.net
Download 2
Turbobit.net
KatFile.com
Rapidgator.net

Tracklist:

1-1 - Dream On (Bushwacka Tough 
Guy Mix) - 6:08
1-2 - Suffer Well (M83 Remix) - 4:31
1-3 - John The Revelator (UNKLE 
Reconstruction) - 4:59
1-4 - In Chains (Tigerskin's No Sleep 
Remix) - 7:45
1-5 - Peace (SixToes Remix) - 5:13
1-6 - Lilian (Chab Vocal Remix Edit) - 
6:14
1-7 - Never Let Me Down Again 
(Digitalism Remix) - 4:37
1-8 - Corrupt (Efdemin Remix) - 6:29
1-9 - Everything Counts (Oliver 
Huntemann + Stephan 
Bodzin Dub) - 6:53
1-10 - Happiest Girl (The Pulsating 
Orbital Vocal Mix) - 
7:57
1-11 - Walking In My Shoes 
(Anandamidic Mix) - 6:11
1-12 - Personal Jesus (The Stargate 
Mix) - 3:58
1-13 - Slowblow (Darren Price Mix) - 
6:27
2-1 - Wrong (Trentemøller Club 
Remix) - 6:55
2-2 - World In My Eyes (Dub In My 
Eyes) - 6:56
2-3 - Fragile Tension (Peter Bjorn + 
John Remix) - 3:44
2-4 - Strangelove (Tim Simenon/Mark 
Saunders Remix) - 
6:31
2-5 - A Pain That I'm Used To 
(Jacques Lu Cont Remix) - 
7:50
2-6 - The Darkest Star (Monolake 
Remix) - 5:43
2-7 - I Feel You (Helmet At The Helm 
Mix) - 6:39
2-8 - Higher Love (Adrenaline Mix 
Edit) - 4:47
2-9 - Fly On The Windscreen (Death 
Mix) - 5:09
2-10 - Barrel Of A Gun (United Mix) - 
6:36
2-11 - Only When I Lose Myself (Dan 
The Automator 
Mix) - 4:57
2-12 - Ghost (Le Weekend Remix) - 
8:21
3-1 - Personal Jesus (Alex Metric 
Remix Edit) - 3:27
3-2 - Never Let Me Down Again (Eric 
Prydz Remix) - 7:01
3-3 - Behind The Wheel (Vince Clarke 
Remix) - 6:42
3-4 - Leave In Silence (Claro 
Intelecto 'The Last Time' 
Remix) - 4:56
3-5 - In Chains (Alan Wilder Remix) - 
7:17
3-6 - When The Body Speaks 
(Karlsson + Winnberg 
Remix) - 6:55
3-7 - Puppets (Röyksopp Remix) - 
4:40
3-8 - Tora! Tora! Tora! (Karlsson + 
Winnberg (from Miike 
Snow) Remix) - 7:38
3-9 - Freestate (Clark Remix) - 4:50
3-10 - I Want It All (Roland M. Dill 
Remix) - 6:43
3-11 - A Question Of Time (Joebot 
Presents 'Radio Face' 
Remix) - 5:32
3-12 - Personal Jesus (Sie Medway-
Smith Remix) - 6:25

EAC-Log, CUE-Sheed & NFO:

Click to open spoiler
Exact Audio Copy V1.0 beta 1 from 15. November 2010

EAC extraction logfile from 10. June 2011, 0:36

Depeche Mode / Remixes 2 [81-11] [Disc 1]

Used drive : HL-DT-STDVDRRW GSA-H30L Adapter: 0 ID: 0

Read mode : Secure
Utilize accurate stream : Yes
Defeat audio cache : Yes
Make use of C2 pointers : No

Read offset correction : 102
Overread into Lead-In and Lead-Out : No
Fill up missing offset samples with silence : Yes
Delete leading and trailing silent blocks : No
Null samples used in CRC calculations : Yes
Used interface : Installed external ASPI interface
Gap handling : Appended to previous track

Used output format : User Defined Encoder
Selected bitrate : 1024 kBit/s
Quality : High
Add ID3 tag : No
Command line compressor : C:\Program Files\Exact Audio Copy\Flac\flac.exe
Additional command line options : -8 -V -T “ARTIST=%a” -T “TITLE=%t” -T “ALBUM=%g” -T “DATE=%y” -T “TRACKNUMBER=%n” -T “GENRE=%m” -T “COMMENT= EAC – FLAC – 8 – oan” %s

TOC of the extracted CD

Track | Start | Length | Start sector | End sector
———————————————————
1 | 0:00.00 | 6:08.10 | 0 | 27609
2 | 6:08.10 | 4:31.24 | 27610 | 47958
3 | 10:39.34 | 4:59.24 | 47959 | 70407
4 | 15:38.58 | 7:45.07 | 70408 | 105289
5 | 23:23.65 | 5:13.48 | 105290 | 128812
6 | 28:37.38 | 6:14.21 | 128813 | 156883
7 | 34:51.59 | 4:37.59 | 156884 | 177717
8 | 39:29.43 | 6:29.02 | 177718 | 206894
9 | 45:58.45 | 6:53.01 | 206895 | 237870
10 | 52:51.46 | 7:57.39 | 237871 | 273684
11 | 60:49.10 | 6:11.38 | 273685 | 301547
12 | 67:00.48 | 3:58.39 | 301548 | 319436
13 | 70:59.12 | 6:27.48 | 319437 | 348509

Track 1

Filename C:\oneanight\01 – Dream On , Bushwacka Tough Guy Mix [2001].wav

Pre-gap length 0:00:02.00

Peak level 100.0 %
Extraction speed 1.9 X
Track quality 100.0 %
Test CRC 251DCF2A
Copy CRC 251DCF2A
Accurately ripped (confidence 1) [70B54D79]
Copy OK

Track 2

Filename C:\oneanight\02 – Suffer Well , M83 Remix [2006].wav

Pre-gap length 0:00:00.10

Peak level 100.0 %
Extraction speed 1.8 X
Track quality 99.9 %
Test CRC 984CFAAA
Copy CRC 984CFAAA
Accurately ripped (confidence 1) [5A29E678]
Copy OK

Track 3

Filename C:\oneanight\03 – John The Revelator , UNKLE Reconstruction [2006].wav

Peak level 100.0 %
Extraction speed 2.3 X
Track quality 100.0 %
Test CRC 81EB3308
Copy CRC 81EB3308
Accurately ripped (confidence 1) [EBF1E23A]
Copy OK

Track 4

Filename C:\oneanight\04 – In Chains , Tigerskin’s No Sleep Remix [2009].wav

Peak level 100.0 %
Extraction speed 2.6 X
Track quality 100.0 %
Test CRC B40B7FB6
Copy CRC B40B7FB6
Accurately ripped (confidence 1) [FAEF892A]
Copy OK

Track 5

Filename C:\oneanight\05 – In Chains , Tigerskin’s No Sleep Remix [2009].wav

Peak level 100.0 %
Extraction speed 2.7 X
Track quality 100.0 %
Test CRC 711952A5
Copy CRC 711952A5
Accurately ripped (confidence 1) [0A446E72]
Copy OK

Track 6

Filename C:\oneanight\06 – Lilian , Chab Vocal Remix Edit [2006].wav

Pre-gap length 0:00:00.49

Peak level 100.0 %
Extraction speed 2.9 X
Track quality 100.0 %
Test CRC A5A7B315
Copy CRC A5A7B315
Accurately ripped (confidence 1) [B0DD257A]
Copy OK

Track 7

Filename C:\oneanight\07 – Never Let Me Down Again, Digitalism Remix [2006].wav

Peak level 100.0 %
Extraction speed 2.9 X
Track quality 100.0 %
Test CRC 05EECAD0
Copy CRC 05EECAD0
Accurately ripped (confidence 1) [FDB2C528]
Copy OK

Track 8

Filename C:\oneanight\08 – Corrupt , Efdemin Remix [2009].wav

Pre-gap length 0:00:00.76

Peak level 98.8 %
Extraction speed 3.2 X
Track quality 100.0 %
Test CRC 835451C2
Copy CRC 835451C2
Accurately ripped (confidence 1) [C1814D97]
Copy OK

Track 9

Filename C:\oneanight\09 – Everything Counts , Oliver Huntemann And Stephan Bodzin Dub [2006].wav

Pre-gap length 0:00:00.77

Peak level 100.0 %
Extraction speed 3.4 X
Track quality 100.0 %
Test CRC 536BA6AB
Copy CRC 536BA6AB
Accurately ripped (confidence 1) [F1C5F612]
Copy OK

Track 10

Filename C:\oneanight\10 – Happiest Girl , The Pulsating Orbital Vocal Mix [1990].wav

Pre-gap length 0:00:01.68

Peak level 100.0 %
Extraction speed 3.4 X
Track quality 99.9 %
Test CRC 551F64E5
Copy CRC 551F64E5
Accurately ripped (confidence 1) [F89AB858]
Copy OK

Track 11

Filename C:\oneanight\11 – Walking In My Shoes , Anandamidic Mix [1993].wav

Pre-gap length 0:00:01.18

Peak level 100.0 %
Extraction speed 3.7 X
Track quality 100.0 %
Test CRC C3DB390B
Copy CRC C3DB390B
Accurately ripped (confidence 1) [43FE9838]
Copy OK

Track 12

Filename C:\oneanight\12 – Personal Jesus , The Stargate Mix [2011].wav

Pre-gap length 0:00:00.14

Peak level 100.0 %
Extraction speed 3.6 X
Track quality 100.0 %
Test CRC 3D16FE87
Copy CRC 3D16FE87
Accurately ripped (confidence 1) [887CA86C]
Copy OK

Track 13

Filename C:\oneanight\13 – Slowblow , Darren Price Mix [1997].wav

Pre-gap length 0:00:01.80

Peak level 100.0 %
Extraction speed 3.9 X
Track quality 100.0 %
Test CRC EF2588C8
Copy CRC EF2588C8
Accurately ripped (confidence 1) [4D1B93EE]
Copy OK

All tracks accurately ripped

No errors occurred

End of status report

==== Log checksum 7F2D359069BE579163B21D347A50F74043C8C002E0AC8B4D5178D62C5EBC69E8 ====

Exact Audio Copy V1.0 beta 1 from 15. November 2010

EAC extraction logfile from 10. June 2011, 2:16

Depeche Mode / Remixes 2 [81-11] [Disc 2]

Used drive : HL-DT-STDVDRRW GSA-H30L Adapter: 0 ID: 0

Read mode : Secure
Utilize accurate stream : Yes
Defeat audio cache : Yes
Make use of C2 pointers : No

Read offset correction : 102
Overread into Lead-In and Lead-Out : No
Fill up missing offset samples with silence : Yes
Delete leading and trailing silent blocks : No
Null samples used in CRC calculations : Yes
Used interface : Installed external ASPI interface
Gap handling : Appended to previous track

Used output format : User Defined Encoder
Selected bitrate : 1024 kBit/s
Quality : High
Add ID3 tag : No
Command line compressor : C:\Program Files\Exact Audio Copy\Flac\flac.exe
Additional command line options : -8 -V -T “ARTIST=%a” -T “TITLE=%t” -T “ALBUM=%g” -T “DATE=%y” -T “TRACKNUMBER=%n” -T “GENRE=%m” -T “COMMENT= EAC – FLAC – 8 – oan” %s

TOC of the extracted CD

Track | Start | Length | Start sector | End sector
———————————————————
1 | 0:00.00 | 6:55.07 | 0 | 31131
2 | 6:55.07 | 6:56.15 | 31132 | 62346
3 | 13:51.22 | 3:44.47 | 62347 | 79193
4 | 17:35.69 | 6:31.50 | 79194 | 108568
5 | 24:07.44 | 7:49.71 | 108569 | 143814
6 | 31:57.40 | 5:43.60 | 143815 | 169599
7 | 37:41.25 | 6:39.54 | 169600 | 199578
8 | 44:21.04 | 4:47.16 | 199579 | 221119
9 | 49:08.20 | 5:09.61 | 221120 | 244355
10 | 54:18.06 | 6:36.31 | 244356 | 274086
11 | 60:54.37 | 4:57.17 | 274087 | 296378
12 | 65:51.54 | 8:21.42 | 296379 | 333995

Track 1

Filename C:\oneanight\01 – Wrong , Trentemøller Club Remix [2009].wav

Pre-gap length 0:00:02.00

Peak level 98.8 %
Extraction speed 1.8 X
Track quality 99.9 %
Test CRC 69652CB5
Copy CRC 69652CB5
Accurately ripped (confidence 1) [F9D266FD]
Copy OK

Track 2

Filename C:\oneanight\02 – World In My Eyes , Dub In My Eyes [1990].wav

Peak level 100.0 %
Extraction speed 2.2 X
Track quality 100.0 %
Test CRC 463B9292
Copy CRC 463B9292
Accurately ripped (confidence 1) [5780E211]
Copy OK

Track 3

Filename C:\oneanight\03 – Fragile Tension , Peter Bjorn and John Remix [2009].wav

Pre-gap length 0:00:01.05

Peak level 98.8 %
Extraction speed 2.2 X
Track quality 100.0 %
Test CRC C10CE0C7
Copy CRC C10CE0C7
Accurately ripped (confidence 1) [427CBD72]
Copy OK

Track 4

Filename C:\oneanight\04 – Strangelove , Tim Simenon,Mark Saunders Remix [1998].wav

Peak level 100.0 %
Extraction speed 2.5 X
Track quality 100.0 %
Test CRC 2F6F5103
Copy CRC 2F6F5103
Accurately ripped (confidence 1) [C1741F7B]
Copy OK

Track 5

Filename C:\oneanight\05 – A Pain That I’m Used To , Jacques Lu Cont Remix [2005].wav

Pre-gap length 0:00:00.01

Peak level 100.0 %
Extraction speed 2.8 X
Track quality 100.0 %
Test CRC BB8C7D20
Copy CRC BB8C7D20
Accurately ripped (confidence 1) [9A5E3F49]
Copy OK

Track 6

Filename C:\oneanight\06 – The Darkest Star , Monolake Remix [2006].wav

Peak level 100.0 %
Extraction speed 2.9 X
Track quality 100.0 %
Test CRC B7DA3E6A
Copy CRC B7DA3E6A
Accurately ripped (confidence 1) [B8A3A63D]
Copy OK

Track 7

Filename C:\oneanight\07 – I Feel You , Helmet At The Helm Mix [1993].wav

Pre-gap length 0:00:00.96

Peak level 100.0 %
Extraction speed 3.2 X
Track quality 100.0 %
Test CRC 1DAC7970
Copy CRC 1DAC7970
Accurately ripped (confidence 1) [1793BAF8]
Copy OK

Track 8

Filename C:\oneanight\08 – Higher Love , Adrenaline Mix Edit [2004].wav

Pre-gap length 0:00:00.01

Peak level 100.0 %
Extraction speed 2.8 X
Track quality 99.9 %
Test CRC 6F9C80ED
Copy CRC 6F9C80ED
Accurately ripped (confidence 1) [4DA32929]
Copy OK

Track 9

Filename C:\oneanight\09 – Fly On The Windscreen – Death Mix [1985].wav

Pre-gap length 0:00:01.44

Peak level 100.0 %
Extraction speed 3.0 X
Track quality 99.9 %
Test CRC 62F81BD9
Copy CRC 62F81BD9
Accurately ripped (confidence 1) [676A2DC6]
Copy OK

Track 10

Filename C:\oneanight\10 – Barrel Of A Gun , United Mix [1997].wav

Pre-gap length 0:00:02.06

Peak level 100.0 %
Extraction speed 3.6 X
Track quality 100.0 %
Test CRC 0EC2B1DF
Copy CRC 0EC2B1DF
Accurately ripped (confidence 1) [E4D1820C]
Copy OK

Track 11

Filename C:\oneanight\11 – Only When I Lose Myself , Dan The Automator Mix [1998].wav

Pre-gap length 0:00:01.40

Peak level 100.0 %
Extraction speed 3.6 X
Track quality 100.0 %
Test CRC 0109EAFF
Copy CRC 0109EAFF
Accurately ripped (confidence 1) [766C7A2F]
Copy OK

Track 12

Filename C:\oneanight\12 – Ghost , Le Weekend Remix [2009].wav

Pre-gap length 0:00:00.86

Peak level 100.0 %
Extraction speed 3.9 X
Track quality 100.0 %
Test CRC D267645E
Copy CRC D267645E
Accurately ripped (confidence 1) [25C3768A]
Copy OK

All tracks accurately ripped

No errors occurred

End of status report

==== Log checksum FF754A333BE996C3E7DCE07085C06C6A8972171726C197791F3DF84ECF14C94E ====

Exact Audio Copy V1.0 beta 1 from 15. November 2010

EAC extraction logfile from 10. June 2011, 7:42

Depeche Mode / Remixes 2 [81-11] [Disc 3]

Used drive : HL-DT-STDVDRRW GSA-H30L Adapter: 0 ID: 0

Read mode : Secure
Utilize accurate stream : Yes
Defeat audio cache : Yes
Make use of C2 pointers : No

Read offset correction : 102
Overread into Lead-In and Lead-Out : No
Fill up missing offset samples with silence : Yes
Delete leading and trailing silent blocks : No
Null samples used in CRC calculations : Yes
Used interface : Installed external ASPI interface
Gap handling : Appended to previous track

Used output format : User Defined Encoder
Selected bitrate : 1024 kBit/s
Quality : High
Add ID3 tag : No
Command line compressor : C:\Program Files\Exact Audio Copy\Flac\flac.exe
Additional command line options : -8 -V -T “ARTIST=%a” -T “TITLE=%t” -T “ALBUM=%g” -T “DATE=%y” -T “TRACKNUMBER=%n” -T “GENRE=%m” -T “COMMENT= EAC – FLAC – 8 – oan” %s

TOC of the extracted CD

Track | Start | Length | Start sector | End sector
———————————————————
1 | 0:00.00 | 3:27.63 | 0 | 15587
2 | 3:27.63 | 7:00.71 | 15588 | 47158
3 | 10:28.59 | 6:42.53 | 47159 | 77361
4 | 17:11.37 | 4:56.06 | 77362 | 99567
5 | 22:07.43 | 7:17.66 | 99568 | 132408
6 | 29:25.34 | 6:55.61 | 132409 | 163594
7 | 36:21.20 | 4:40.35 | 163595 | 184629
8 | 41:01.55 | 7:38.65 | 184630 | 219044
9 | 48:40.45 | 4:49.71 | 219045 | 240790
10 | 53:30.41 | 6:42.01 | 240791 | 270941
11 | 60:12.42 | 5:32.16 | 270942 | 295857
12 | 65:44.58 | 6:25.39 | 295858 | 324771

Track 1

Filename C:\oneanight\01 – Personal Jesus , Alex Metric Remix Edit [2011].wav

Pre-gap length 0:00:02.00

Peak level 100.0 %
Extraction speed 1.7 X
Track quality 100.0 %
Test CRC 2386F00D
Copy CRC 2386F00D
Accurately ripped (confidence 1) [1F88B224]
Copy OK

Track 2

Filename C:\oneanight\02 – Never Let Me Down Again , Eric Prydz Remix [2011].wav

Pre-gap length 0:00:00.18

Peak level 100.0 %
Extraction speed 2.1 X
Track quality 100.0 %
Test CRC 1504E20C
Copy CRC 1504E20C
Accurately ripped (confidence 1) [2F4CB828]
Copy OK

Track 3

Filename C:\oneanight\03 – Behind The Wheel , Vince Clarke Remix [2011].wav

Pre-gap length 0:00:00.06

Peak level 100.0 %
Extraction speed 2.3 X
Track quality 100.0 %
Test CRC 9DF921DD
Copy CRC 9DF921DD
Accurately ripped (confidence 1) [EEF556BF]
Copy OK

Track 4

Filename C:\oneanight\04 – Leave In Silence , Claro Intelecto ‘The Last Time’ Remix [2011].wav

Pre-gap length 0:00:00.48

Peak level 100.0 %
Extraction speed 2.4 X
Track quality 100.0 %
Test CRC 4511B186
Copy CRC 4511B186
Accurately ripped (confidence 1) [E16330D2]
Copy OK

Track 5

Filename C:\oneanight\05 – In Chains , Alan Wilder Remix [2011].wav

Peak level 100.0 %
Extraction speed 2.7 X
Track quality 100.0 %
Test CRC 816B9D9E
Copy CRC 816B9D9E
Accurately ripped (confidence 1) [E19CBC2C]
Copy OK

Track 6

Filename C:\oneanight\06 – When The Body Speaks , Karlsson And Winnberg Remix [2011].wav

Peak level 100.0 %
Extraction speed 2.9 X
Track quality 100.0 %
Test CRC 8A11A673
Copy CRC 8A11A673
Accurately ripped (confidence 1) [04D39452]
Copy OK

Track 7

Filename C:\oneanight\07 – Puppets , Royksopp Remix [2011].wav

Peak level 100.0 %
Extraction speed 3.0 X
Track quality 100.0 %
Test CRC 1D9EDFCC
Copy CRC 1D9EDFCC
Accurately ripped (confidence 1) [A236805A]
Copy OK

Track 8

Filename C:\oneanight\08 – Tora! Tora! Tora! , Karlsson And Winnberg [from Miike Snow] Remix [2011].wav

Peak level 100.0 %
Extraction speed 3.3 X
Track quality 100.0 %
Test CRC 704AFD8B
Copy CRC 704AFD8B
Accurately ripped (confidence 1) [2C7ED52D]
Copy OK

Track 9

Filename C:\oneanight\09 – Freestate , Clark Remix [2011].wav

Pre-gap length 0:00:00.30

Peak level 100.0 %
Extraction speed 3.3 X
Track quality 100.0 %
Test CRC 9A5F8BB5
Copy CRC 9A5F8BB5
Accurately ripped (confidence 1) [7AA11BEC]
Copy OK

Track 10

Filename C:\oneanight\10 – I Want It All , Roland M. Dill Remix [2011].wav

Peak level 100.0 %
Extraction speed 3.6 X
Track quality 100.0 %
Test CRC 3318D091
Copy CRC 3318D091
Accurately ripped (confidence 1) [A83BD276]
Copy OK

Track 11

Filename C:\oneanight\11 – A Question Of Time , Joebot Presents ‘Radio Face’ Remix [2011].wav

Peak level 100.0 %
Extraction speed 3.6 X
Track quality 100.0 %
Test CRC 87B64D50
Copy CRC 87B64D50
Accurately ripped (confidence 1) [ECB0614E]
Copy OK

Track 12

Filename C:\oneanight\12 – Personal Jesus , Sie Medway-Smith Remix [2011].wav

Peak level 100.0 %
Extraction speed 3.5 X
Track quality 99.9 %
Test CRC 1A8838A5
Copy CRC 1A8838A5
Accurately ripped (confidence 1) [3813BE17]
Copy OK

All tracks accurately ripped

No errors occurred

End of status report

==== Log checksum 8E35BC34A3F92E9339B3A8B4297A6F1C515A1D2924B6FB5C0E6B22A55051EE28 ====

REM COMMENT “CUETools generated dummy CUE sheet”
FILE “01 – Wrong (Trentemøller Club Remix).flac” WAVE
TRACK 01 AUDIO
INDEX 01 00:00:00
FILE “02 – World in My Eyes (Dub in My Eyes).flac” WAVE
TRACK 02 AUDIO
INDEX 01 00:00:00
FILE “03 – Fragile Tension (Peter Bjorn and John Remix).flac” WAVE
TRACK 03 AUDIO
INDEX 01 00:00:00
FILE “04 – Strangelove (Tim Simenon_Mark Saunders Remix).flac” WAVE
TRACK 04 AUDIO
INDEX 01 00:00:00
FILE “05 – A Pain That I’m Used To (Jacques Lu Cont Remix).flac” WAVE
TRACK 05 AUDIO
INDEX 01 00:00:00
FILE “06 – The Darkest Star (Monolake Remix).flac” WAVE
TRACK 06 AUDIO
INDEX 01 00:00:00
FILE “07 – I Feel You (Helmet at the Helm Mix).flac” WAVE
TRACK 07 AUDIO
INDEX 01 00:00:00
FILE “08 – Higher Love (Adrenaline Mix Edit).flac” WAVE
TRACK 08 AUDIO
INDEX 01 00:00:00
FILE “09 – Fly on the Windscreen (Death Mix).flac” WAVE
TRACK 09 AUDIO
INDEX 01 00:00:00
FILE “10 – Barrel of a Gun (United Mix).flac” WAVE
TRACK 10 AUDIO
INDEX 01 00:00:00
FILE “11 – Only When I Lose Myself (Dan the Automator Mix).flac” WAVE
TRACK 11 AUDIO
INDEX 01 00:00:00
FILE “12 – Ghost (Le Weekend Remix).flac” WAVE
TRACK 12 AUDIO
INDEX 01 00:00:00

REM COMMENT “CUETools generated dummy CUE sheet”
FILE “01 – Personal Jesus (Alex Metric Remix Edit).flac” WAVE
TRACK 01 AUDIO
INDEX 01 00:00:00
FILE “02 – Never Let Me Down Again (Eric Prydz Remix).flac” WAVE
TRACK 02 AUDIO
INDEX 01 00:00:00
FILE “03 – Behind the Wheel (Vince Clarke Remix).flac” WAVE
TRACK 03 AUDIO
INDEX 01 00:00:00
FILE “04 – Leave in Silence (Claro Intelecto ‘The Last Time’ Remix).flac” WAVE
TRACK 04 AUDIO
INDEX 01 00:00:00
FILE “05 – In Chains (Alan Wilder Remix).flac” WAVE
TRACK 05 AUDIO
INDEX 01 00:00:00
FILE “06 – When the Body Speaks (Karlsson + Winnberg Remix).flac” WAVE
TRACK 06 AUDIO
INDEX 01 00:00:00
FILE “07 – Puppets (Röyksopp Remix).flac” WAVE
TRACK 07 AUDIO
INDEX 01 00:00:00
FILE “08 – Tora! Tora! Tora! (Karlsson +Winnberg [from Miike Snow] Remix).flac” WAVE
TRACK 08 AUDIO
INDEX 01 00:00:00
FILE “09 – Freestate (Clark Remix).flac” WAVE
TRACK 09 AUDIO
INDEX 01 00:00:00
FILE “10 – I Want It All (Roland M. Dill Remix).flac” WAVE
TRACK 10 AUDIO
INDEX 01 00:00:00
FILE “11 – A Question of Time (Joebot Presents ‘Radio Face’ Remix).flac” WAVE
TRACK 11 AUDIO
INDEX 01 00:00:00
FILE “12 – Personal Jesus (Sie Medway-Smith Remix).flac” WAVE
TRACK 12 AUDIO
INDEX 01 00:00:00

REM COMMENT “CUETools generated dummy CUE sheet”
FILE “01 – Dream On (Bushwacka Tough Guy Mix).flac” WAVE
TRACK 01 AUDIO
INDEX 01 00:00:00
FILE “02 – Suffer Well (M83 Remix).flac” WAVE
TRACK 02 AUDIO
INDEX 01 00:00:00
FILE “03 – John the Revelator (UNKLE Reconstruction).flac” WAVE
TRACK 03 AUDIO
INDEX 01 00:00:00
FILE “04 – In Chains (Tigerskin’s No Sleep Remix).flac” WAVE
TRACK 04 AUDIO
INDEX 01 00:00:00
FILE “05 – Peace (SixToes Remix).flac” WAVE
TRACK 05 AUDIO
INDEX 01 00:00:00
FILE “06 – Lilian (Chab Vocal Remix Edit).flac” WAVE
TRACK 06 AUDIO
INDEX 01 00:00:00
FILE “07 – Never Let Me Down Again (Digitalism Remix).flac” WAVE
TRACK 07 AUDIO
INDEX 01 00:00:00
FILE “08 – Corrupt (Efdemin Remix).flac” WAVE
TRACK 08 AUDIO
INDEX 01 00:00:00
FILE “09 – Everything Counts (Oliver Huntemann + Stephan Bodzin Dub).flac” WAVE
TRACK 09 AUDIO
INDEX 01 00:00:00
FILE “10 – Happiest Girl (The Pulsating Orbital Vocal Mix).flac” WAVE
TRACK 10 AUDIO
INDEX 01 00:00:00
FILE “11 – Walking in My Shoes (Anandamidic Mix).flac” WAVE
TRACK 11 AUDIO
INDEX 01 00:00:00
FILE “12 – Personal Jesus (The Stargate Mix).flac” WAVE
TRACK 12 AUDIO
INDEX 01 00:00:00
FILE “13 – Slowblow (Darren Price Mix).flac” WAVE
TRACK 13 AUDIO
INDEX 01 00:00:00


Leave a Reply

Your email address will not be published. Required fields are marked *

This site uses Akismet to reduce spam. Learn how your comment data is processed.