Depeche Mode – Exciter




Artist: Depeche Mode
Year: 2001
Genre: Rock
Notes: Discogs
Add. Notes:
Cover incl.: Yes
Encoder: FLAC
Bitrate: ~800 kBit/s (44.1 kHz/16 Bit/s)
Log & Cue incl.: Yes
Size: 344,57 MB
Password: “slam” (without ” “)


All Downloads/Hosters are compatible

Download 1
Turbobit.net
KatFile.com
Rapidgator.net
Download 2
Turbobit.net
KatFile.com
Rapidgator.net

Tracklist:

1 - Dream On - 4:19
2 - Shine - 5:32
3 - The Sweetest Condition - 3:42
4 - When The Body Speaks - 6:01
5 - The Dead Of Night - 4:50
6 - Lovetheme - 2:02
7 - Freelove - 6:10
8 - Comatose - 3:24
9 - I Feel Loved - 4:20
10 - Breathe - 5:17
11 - Easy Tiger - 2:05
12 - I Am You - 5:10
13 - Goodnight Lovers - 3:48

EAC-Log, CUE-Sheed & NFO:

Click to open spoiler
Exact Audio Copy V0.99 prebeta 4 from 23. January 2008

EAC extraction logfile from 23. March 2008, 1:50

Depeche Mode / Exciter

Used drive : ASUS DRW-1608P2S Adapter: 1 ID: 0

Read mode : Secure
Utilize accurate stream : Yes
Defeat audio cache : Yes
Make use of C2 pointers : No

Read offset correction : 48
Overread into Lead-In and Lead-Out : No
Fill up missing offset samples with silence : Yes
Delete leading and trailing silent blocks : No
Null samples used in CRC calculations : Yes
Used interface : Native Win32 interface for Win NT & 2000
Gap handling : Appended to previous track

Used output format : User Defined Encoder
Selected bitrate : 768 kBit/s
Quality : High
Add ID3 tag : No
Command line compressor : C:\Program Files (x86)\Exact Audio Copy\FLAC\FLAC.EXE
Additional command line options : -8 -V -T “ARTIST=%a” -T “TITLE=%t” -T “ALBUM=%g” -T “DATE=%y” -T “TRACKNUMBER=%n” -T “GENRE=%m” -T “COMMENT=EAC FLAC -8” %s

TOC of the extracted CD

Track | Start | Length | Start sector | End sector
———————————————————
1 | 0:00.00 | 4:19.65 | 0 | 19489
2 | 4:19.65 | 5:32.40 | 19490 | 44429
3 | 9:52.30 | 3:42.45 | 44430 | 61124
4 | 13:35.00 | 6:01.02 | 61125 | 88201
5 | 19:36.02 | 4:50.20 | 88202 | 109971
6 | 24:26.22 | 2:02.40 | 109972 | 119161
7 | 26:28.62 | 6:10.53 | 119162 | 146964
8 | 32:39.40 | 3:24.10 | 146965 | 162274
9 | 36:03.50 | 4:20.55 | 162275 | 181829
10 | 40:24.30 | 5:17.52 | 181830 | 205656
11 | 45:42.07 | 2:05.30 | 205657 | 215061
12 | 47:47.37 | 5:10.33 | 215062 | 238344
13 | 52:57.70 | 3:48.45 | 238345 | 255489

Track 1

Filename H:\Temp\01. Depeche Mode – Dream On.wav

Pre-gap length 0:00:02.00

Peak level 100.0 %
Track quality 100.0 %
Test CRC 6B8A0FB5
Copy CRC 6B8A0FB5
Accurately ripped (confidence 65) [4332B0DF]
Copy OK

Track 2

Filename H:\Temp\02. Depeche Mode – Shine.wav

Pre-gap length 0:00:01.70

Peak level 100.0 %
Track quality 100.0 %
Test CRC 6E0842BF
Copy CRC 6E0842BF
Accurately ripped (confidence 65) [A0CC286C]
Copy OK

Track 3

Filename H:\Temp\03. Depeche Mode – The Sweetest Condition.wav

Pre-gap length 0:00:02.70

Peak level 100.0 %
Track quality 100.0 %
Test CRC 050FA407
Copy CRC 050FA407
Accurately ripped (confidence 64) [7ABFD6E0]
Copy OK

Track 4

Filename H:\Temp\04. Depeche Mode – When The Body Speaks.wav

Pre-gap length 0:00:01.68

Peak level 100.0 %
Track quality 100.0 %
Test CRC 3D612BE7
Copy CRC 3D612BE7
Accurately ripped (confidence 65) [7C4321E7]
Copy OK

Track 5

Filename H:\Temp\05. Depeche Mode – The Dead Of Night.wav

Pre-gap length 0:00:01.07

Peak level 100.0 %
Track quality 100.0 %
Test CRC BA876AA9
Copy CRC BA876AA9
Accurately ripped (confidence 65) [40876C4A]
Copy OK

Track 6

Filename H:\Temp\06. Depeche Mode – Lovetheme.wav

Pre-gap length 0:00:01.72

Peak level 63.0 %
Track quality 99.9 %
Test CRC A283B3D6
Copy CRC A283B3D6
Accurately ripped (confidence 65) [ACBEDA25]
Copy OK

Track 7

Filename H:\Temp\07. Depeche Mode – Freelove.wav

Pre-gap length 0:00:02.35

Peak level 100.0 %
Track quality 100.0 %
Test CRC 351D84D7
Copy CRC 351D84D7
Accurately ripped (confidence 65) [28F313EA]
Copy OK

Track 8

Filename H:\Temp\08. Depeche Mode – Comatose.wav

Pre-gap length 0:00:03.13

Peak level 100.0 %
Track quality 100.0 %
Test CRC 7D428BCF
Copy CRC 7D428BCF
Accurately ripped (confidence 65) [0DAE0B61]
Copy OK

Track 9

Filename H:\Temp\09. Depeche Mode – I Feel Loved.wav

Pre-gap length 0:00:01.70

Peak level 100.0 %
Track quality 100.0 %
Test CRC 9FADA709
Copy CRC 9FADA709
Accurately ripped (confidence 65) [C1C5A974]
Copy OK

Track 10

Filename H:\Temp\10. Depeche Mode – Breathe.wav

Pre-gap length 0:00:02.13

Peak level 100.0 %
Track quality 100.0 %
Test CRC 26F14F4B
Copy CRC 26F14F4B
Accurately ripped (confidence 65) [9CD0C7A2]
Copy OK

Track 11

Filename H:\Temp\11. Depeche Mode – Easy Tiger.wav

Pre-gap length 0:00:01.60

Peak level 63.0 %
Track quality 100.0 %
Test CRC CAD36708
Copy CRC CAD36708
Accurately ripped (confidence 64) [5DE670C1]
Copy OK

Track 12

Filename H:\Temp\12. Depeche Mode – I Am You.wav

Peak level 100.0 %
Track quality 100.0 %
Test CRC B5EDC53E
Copy CRC B5EDC53E
Accurately ripped (confidence 65) [5D94B888]
Copy OK

Track 13

Filename H:\Temp\13. Depeche Mode – Goodnight Lovers.wav

Pre-gap length 0:00:05.10

Peak level 99.1 %
Track quality 100.0 %
Test CRC 00E79A3E
Copy CRC 00E79A3E
Accurately ripped (confidence 63) [2B238421]
Copy OK

All tracks accurately ripped

No errors occurred

End of status report

REM COMMENT “CUETools generated dummy CUE sheet”
FILE “01 – Dream On.flac” WAVE
TRACK 01 AUDIO
INDEX 01 00:00:00
FILE “02 – Shine.flac” WAVE
TRACK 02 AUDIO
INDEX 01 00:00:00
FILE “03 – The Sweetest Condition.flac” WAVE
TRACK 03 AUDIO
INDEX 01 00:00:00
FILE “04 – When the Body Speaks.flac” WAVE
TRACK 04 AUDIO
INDEX 01 00:00:00
FILE “05 – The Dead of Night.flac” WAVE
TRACK 05 AUDIO
INDEX 01 00:00:00
FILE “06 – Lovetheme.flac” WAVE
TRACK 06 AUDIO
INDEX 01 00:00:00
FILE “07 – Freelove.flac” WAVE
TRACK 07 AUDIO
INDEX 01 00:00:00
FILE “08 – Comatose.flac” WAVE
TRACK 08 AUDIO
INDEX 01 00:00:00
FILE “09 – I Feel Loved.flac” WAVE
TRACK 09 AUDIO
INDEX 01 00:00:00
FILE “10 – Breathe.flac” WAVE
TRACK 10 AUDIO
INDEX 01 00:00:00
FILE “11 – Easy Tiger.flac” WAVE
TRACK 11 AUDIO
INDEX 01 00:00:00
FILE “12 – I Am You.flac” WAVE
TRACK 12 AUDIO
INDEX 01 00:00:00


Leave a Reply

Your email address will not be published. Required fields are marked *

Enter the text from the image below
 

This site uses Akismet to reduce spam. Learn how your comment data is processed.