Depeche Mode – Delta Machine




Artist: Depeche Mode
Year: 2013
Genre: Rock
Notes: Discogs
Add. Notes:
Cover incl.: Yes
Encoder: FLAC
Bitrate: ~800 kBit/s (44.1 kHz/16 Bit/s)
Log & Cue incl.: Yes
Size: 372,57 MB
Password: “slam” (without ” “)


All Downloads/Hosters are compatible

Download 1
Turbobit.net
KatFile.com
Rapidgator.net
Download 2
Turbobit.net
KatFile.com
Rapidgator.net

Tracklist:

1 - Welcome To My World - 4:56
2 - Angel - 3:58
3 - Heaven - 4:05
4 - Secret To The End - 5:12
5 - My Little Universe - 4:24
6 - Slow - 3:45
7 - Broken - 3:58
8 - The Child Inside - 4:16
9 - Soft Touch/Raw Nerve - 3:27
10 - Should Be Higher - 5:04
11 - Alone - 4:29
12 - Soothe My Soul - 5:22
13 - Goodbye - 5:03

EAC-Log, CUE-Sheed & NFO:

Click to open spoiler
Exact Audio Copy V1.0 beta 3 from 29. August 2011

EAC extraction logfile from 20. March 2013, 0:05

Depeche Mode / Delta Machine

Used drive : HL-DT-STDVDRAM GSA-4083N Adapter: 1 ID: 0

Read mode : Secure
Utilize accurate stream : Yes
Defeat audio cache : Yes
Make use of C2 pointers : No

Read offset correction : 667
Overread into Lead-In and Lead-Out : Yes
Fill up missing offset samples with silence : Yes
Delete leading and trailing silent blocks : No
Null samples used in CRC calculations : Yes
Used interface : Native Win32 interface for Win NT & 2000
Gap handling : Appended to previous track

Used output format : User Defined Encoder
Selected bitrate : 1024 kBit/s
Quality : High
Add ID3 tag : No
Command line compressor : C:\Program Files\Exact Audio Copy\FLAC\FLAC.EXE
Additional command line options : -6 -V -T “ARTIST=%artist%” -T “TITLE=%title%” -T “ALBUM=%albumtitle%” -T “DATE=%year%” -T “TRACKNUMBER=%tracknr%” -T “GENRE=%genre%” -T “COMMENT=%comment%” -T “BAND=%albuminterpret%” -T “ALBUMARTIST=%albuminterpret%” -T “COMPOSER=%composer%” %haslyrics%–tag-from-file=LYRICS=”%lyricsfile%”%haslyrics% -T “DISCNUMBER=%cdnumber%” -T “TOTALDISCS=%totalcds%” -T “TOTALTRACKS=%numtracks%” %hascover%–picture=”%coverfile%”%hascover% %source% -o %dest%

TOC of the extracted CD

Track | Start | Length | Start sector | End sector
———————————————————
1 | 0:00.00 | 4:56.45 | 0 | 22244
2 | 4:56.45 | 3:57.72 | 22245 | 40091
3 | 8:54.42 | 4:05.39 | 40092 | 58505
4 | 13:00.06 | 5:12.23 | 58506 | 81928
5 | 18:12.29 | 4:24.27 | 81929 | 101755
6 | 22:36.56 | 3:45.68 | 101756 | 118698
7 | 26:22.49 | 3:58.36 | 118699 | 136584
8 | 30:21.10 | 4:16.15 | 136585 | 155799
9 | 34:37.25 | 3:26.73 | 155800 | 171322
10 | 38:04.23 | 5:04.49 | 171323 | 194171
11 | 43:08.72 | 4:29.71 | 194172 | 214417
12 | 47:38.68 | 5:22.12 | 214418 | 238579
13 | 53:01.05 | 5:03.00 | 238580 | 261304

Track 1

Filename D:\Depeche Mode\Delta Machine\01 Welcome To My World.wav

Pre-gap length 0:00:02.00

Peak level 98.8 %
Extraction speed 2.6 X
Track quality 100.0 %
Test CRC 7170DF83
Copy CRC 7170DF83
Track not present in AccurateRip database
Copy OK

Track 2

Filename D:\Depeche Mode\Delta Machine\02 Angel.wav

Peak level 100.0 %
Extraction speed 2.9 X
Track quality 100.0 %
Test CRC 5BD46CEA
Copy CRC 5BD46CEA
Track not present in AccurateRip database
Copy OK

Track 3

Filename D:\Depeche Mode\Delta Machine\03 Heaven.wav

Peak level 98.8 %
Extraction speed 3.2 X
Track quality 100.0 %
Test CRC A2DBA2E5
Copy CRC A2DBA2E5
Track not present in AccurateRip database
Copy OK

Track 4

Filename D:\Depeche Mode\Delta Machine\04 Secret To The End.wav

Pre-gap length 0:00:02.28

Peak level 98.8 %
Extraction speed 3.5 X
Track quality 100.0 %
Test CRC CACE6B30
Copy CRC CACE6B30
Track not present in AccurateRip database
Copy OK

Track 5

Filename D:\Depeche Mode\Delta Machine\05 My Little Universe.wav

Pre-gap length 0:00:02.80

Peak level 98.8 %
Extraction speed 3.7 X
Track quality 100.0 %
Test CRC 0AEA412E
Copy CRC 0AEA412E
Track not present in AccurateRip database
Copy OK

Track 6

Filename D:\Depeche Mode\Delta Machine\06 Slow.wav

Pre-gap length 0:00:01.05

Peak level 98.8 %
Extraction speed 3.8 X
Track quality 100.0 %
Test CRC 6537649F
Copy CRC 6537649F
Track not present in AccurateRip database
Copy OK

Track 7

Filename D:\Depeche Mode\Delta Machine\07 Broken.wav

Peak level 93.3 %
Extraction speed 4.0 X
Track quality 100.0 %
Test CRC 079DF780
Copy CRC 079DF780
Track not present in AccurateRip database
Copy OK

Track 8

Filename D:\Depeche Mode\Delta Machine\08 The Child Inside.wav

Pre-gap length 0:00:03.18

Peak level 98.8 %
Extraction speed 4.2 X
Track quality 100.0 %
Test CRC 3DDDD0F2
Copy CRC 3DDDD0F2
Track not present in AccurateRip database
Copy OK

Track 9

Filename D:\Depeche Mode\Delta Machine\09 Soft Touch,Raw Nerve.wav

Pre-gap length 0:00:01.64

Peak level 98.8 %
Extraction speed 4.3 X
Track quality 100.0 %
Test CRC FCD71301
Copy CRC FCD71301
Track not present in AccurateRip database
Copy OK

Track 10

Filename D:\Depeche Mode\Delta Machine\10 Should Be Higher.wav

Pre-gap length 0:00:03.70

Peak level 98.8 %
Extraction speed 4.6 X
Track quality 100.0 %
Test CRC 4CC43478
Copy CRC 4CC43478
Track not present in AccurateRip database
Copy OK

Track 11

Filename D:\Depeche Mode\Delta Machine\11 Alone.wav

Peak level 98.8 %
Extraction speed 4.7 X
Track quality 100.0 %
Test CRC 7C2C9EB4
Copy CRC 7C2C9EB4
Track not present in AccurateRip database
Copy OK

Track 12

Filename D:\Depeche Mode\Delta Machine\12 Soothe my Soul.wav

Pre-gap length 0:00:02.44

Peak level 98.8 %
Extraction speed 5.1 X
Track quality 100.0 %
Test CRC 410E7C5B
Copy CRC 410E7C5B
Track not present in AccurateRip database
Copy OK

Track 13

Filename D:\Depeche Mode\Delta Machine\13 Goodbye.wav

Pre-gap length 0:00:04.24

Peak level 98.8 %
Extraction speed 5.7 X
Track quality 100.0 %
Test CRC 635998A0
Copy CRC 635998A0
Track not present in AccurateRip database
Copy OK

None of the tracks are present in the AccurateRip database

No errors occurred

End of status report

==== Log checksum EC1434C281C133793B2699DD4EF82E1FE67B284B65E466A5986CBFC070EFB7E5 ====

REM COMMENT “CUETools generated dummy CUE sheet”
FILE “01 – Welcome to My World.flac” WAVE
TRACK 01 AUDIO
INDEX 01 00:00:00
FILE “02 – Angel.flac” WAVE
TRACK 02 AUDIO
INDEX 01 00:00:00
FILE “03 – Heaven.flac” WAVE
TRACK 03 AUDIO
INDEX 01 00:00:00
FILE “04 – Secret to the End.flac” WAVE
TRACK 04 AUDIO
INDEX 01 00:00:00
FILE “05 – My Little Universe.flac” WAVE
TRACK 05 AUDIO
INDEX 01 00:00:00
FILE “06 – Slow.flac” WAVE
TRACK 06 AUDIO
INDEX 01 00:00:00
FILE “07 – Broken.flac” WAVE
TRACK 07 AUDIO
INDEX 01 00:00:00
FILE “08 – The Child Inside.flac” WAVE
TRACK 08 AUDIO
INDEX 01 00:00:00
FILE “09 – Soft Touch_Raw Nerve.flac” WAVE
TRACK 09 AUDIO
INDEX 01 00:00:00
FILE “10 – Should Be Higher.flac” WAVE
TRACK 10 AUDIO
INDEX 01 00:00:00
FILE “11 – Alone.flac” WAVE
TRACK 11 AUDIO
INDEX 01 00:00:00
FILE “12 – Soothe My Soul.flac” WAVE
TRACK 12 AUDIO
INDEX 01 00:00:00
FILE “13 – Goodbye.flac” WAVE
TRACK 13 AUDIO
INDEX 01 00:00:00


Leave a Reply

Your email address will not be published. Required fields are marked *

This site uses Akismet to reduce spam. Learn how your comment data is processed.