Depeche Mode – Catching Up With Depeche Mode




Artist: Depeche Mode
Year: 1985
Genre: Rock
Notes: Discogs
Add. Notes:
Cover incl.: Yes
Encoder: FLAC
Bitrate: ~700 kBit/s (44.1 kHz/16 Bit/s)
Log & Cue incl.: Yes
Size: 300,25 MB
Password: “slam” (without ” “)


All Downloads/Hosters are compatible

Download 1
Turbobit.net
KatFile.com
Rapidgator.net
Download 2
Turbobit.net
KatFile.com
Rapidgator.net

Tracklist:

1 - Dreaming Of Me - 3:44
2 - New Life - 3:44
3 - Just Cant Get Enough - 3:36
4 - See You - 3:53
5 - The Meaning Of Love - 3:04
6 - Love In Itself - 3:55
7 - Master And Servant - 3:50
8 - Blasphemous Rumours - 5:04
9 - Somebody - 4:21
10 - Shake The Disease - 4:46
11 - Flexible - 3:09
12 - Its Called A Heart - 3:48
13 - Fly On The Windscreen - 5:05

EAC-Log, CUE-Sheed & NFO:

Click to open spoiler
Отчёт EAC об извлечении, выполненном 24. марта 2008, 22:07 для диска:
Depeche Mode / Catching Up With Depeche Mode

Дисковод: PLEXTOR DVDR PX-760A Adapter: 1 ID: 0
Режим чтения: Достоверный (C2: нет, Точный поток: да, Отключение кэша: да)
Коррекция смещения при чтении: 30
Способность читать области Lead-in и Lead-out : Да

Выходной формат: C:\Program Files\FLAC\flac.exe (Пользовательский кодировщик)
320 kBit/s
Дополнительные параметры: -8 -V -T “ARTIST=%a” -T “TITLE=%t” -T “ALBUM=%g” -T “DATE=%y” -T “TRACKNUMBER=%n” -T “GENRE=%m” -T “COMMENT=EAC FLAC -8” %s

Другие параметры:
Заполнение пропущенных сэмплов тишиной : Да
Удаление блоков с тишиной в начале и конце : Нет
Встроенный Win32-интерфейс для Win NT/2000

Трек 1
Имя файла H:\Temp\01 – Dreaming Of Me.wav

Длина предзазора 0:00:02.33

Пиковый уровень 64.5 %
Качество трека 99.9 %
CRC теста DE7E2593
CRC копии DE7E2593
Копирование… OK

Трек 2
Имя файла H:\Temp\02 – New Life.wav

Длина предзазора 0:00:00.37

Пиковый уровень 70.1 %
Качество трека 100.0 %
CRC теста A81E155E
CRC копии A81E155E
Копирование… OK

Трек 3
Имя файла H:\Temp\03 – Just Can’t Get Enough.wav

Длина предзазора 0:00:01.01

Пиковый уровень 81.3 %
Качество трека 100.0 %
CRC теста A17FC34C
CRC копии A17FC34C
Копирование… OK

Трек 4
Имя файла H:\Temp\04 – See You.wav

Длина предзазора 0:00:00.49

Пиковый уровень 66.4 %
Качество трека 99.9 %
CRC теста E836D041
CRC копии E836D041
Копирование… OK

Трек 5
Имя файла H:\Temp\05 – The Meaning Of Love.wav

Длина предзазора 0:00:01.05

Пиковый уровень 73.4 %
Качество трека 100.0 %
CRC теста 93EB35CE
CRC копии 93EB35CE
Копирование… OK

Трек 6
Имя файла H:\Temp\06 – Love In Itself.wav

Длина предзазора 0:00:00.61

Пиковый уровень 55.5 %
Качество трека 100.0 %
CRC теста F2725835
CRC копии F2725835
Копирование… OK

Трек 7
Имя файла H:\Temp\07 – Master And Servant.wav

Длина предзазора 0:00:01.44

Пиковый уровень 49.3 %
Качество трека 100.0 %
CRC теста D3F99458
CRC копии D3F99458
Копирование… OK

Трек 8
Имя файла H:\Temp\08 – Blasphemous Rumours.wav

Длина предзазора 0:00:00.63

Пиковый уровень 65.3 %
Качество трека 100.0 %
CRC теста 0BD443EC
CRC копии 0BD443EC
Копирование… OK

Трек 9
Имя файла H:\Temp\09 – Somebody.wav

Длина предзазора 0:00:01.20

Пиковый уровень 46.8 %
Качество трека 100.0 %
CRC теста 3B77DEB9
CRC копии 3B77DEB9
Копирование… OK

Трек 10
Имя файла H:\Temp\10 – Shake The Disease.wav

Длина предзазора 0:00:01.52

Пиковый уровень 46.0 %
Качество трека 100.0 %
CRC теста 2ADD52ED
CRC копии 2ADD52ED
Копирование… OK

Трек 11
Имя файла H:\Temp\11 – Flexible.wav

Длина предзазора 0:00:01.30

Пиковый уровень 52.9 %
Качество трека 99.9 %
CRC теста B00286D8
CRC копии B00286D8
Копирование… OK

Трек 12
Имя файла H:\Temp\12 – It’s Called A Heart.wav

Длина предзазора 0:00:00.68

Пиковый уровень 58.7 %
Качество трека 100.0 %
CRC теста 5007232E
CRC копии 5007232E
Копирование… OK

Трек 13
Имя файла H:\Temp\13 – Fly On The Windscreen.wav

Длина предзазора 0:00:01.22

Пиковый уровень 53.8 %
Качество трека 100.0 %
CRC теста 82B7BBDB
CRC копии 82B7BBDB
Копирование… OK

Ошибок не произошло

Конец отчёта

REM COMMENT “CUETools generated dummy CUE sheet”
FILE “01 – Dreaming of Me.flac” WAVE
TRACK 01 AUDIO
INDEX 01 00:00:00
FILE “02 – New Life.flac” WAVE
TRACK 02 AUDIO
INDEX 01 00:00:00
FILE “03 – Just Can’t Get Enough.flac” WAVE
TRACK 03 AUDIO
INDEX 01 00:00:00
FILE “04 – See You.flac” WAVE
TRACK 04 AUDIO
INDEX 01 00:00:00
FILE “05 – The Meaning of Love.flac” WAVE
TRACK 05 AUDIO
INDEX 01 00:00:00
FILE “06 – Love, in Itself.flac” WAVE
TRACK 06 AUDIO
INDEX 01 00:00:00
FILE “07 – Master and Servant.flac” WAVE
TRACK 07 AUDIO
INDEX 01 00:00:00
FILE “08 – Blasphemous Rumours.flac” WAVE
TRACK 08 AUDIO
INDEX 01 00:00:00
FILE “09 – Somebody.flac” WAVE
TRACK 09 AUDIO
INDEX 01 00:00:00
FILE “10 – Shake the Disease.flac” WAVE
TRACK 10 AUDIO
INDEX 01 00:00:00
FILE “11 – Flexible.flac” WAVE
TRACK 11 AUDIO
INDEX 01 00:00:00
FILE “12 – It’s Called a Heart.flac” WAVE
TRACK 12 AUDIO
INDEX 01 00:00:00
FILE “13 – Fly on the Windscreen.flac” WAVE
TRACK 13 AUDIO
INDEX 01 00:00:00


Leave a Reply

Your email address will not be published. Required fields are marked *

This site uses Akismet to reduce spam. Learn how your comment data is processed.