Depeche Mode – A Broken Frame (Reissue)




Artist: Depeche Mode
Year: 1981/1989
Genre: Rock
Notes: Discogs
Add. Notes: Reissue
Cover incl.: Yes
Encoder: FLAC
Bitrate: ~800 kBit/s (44.1 kHz/16 Bit/s)
Log & Cue incl.: Yes
Size: 218,63 MB
Password: “slam” (without ” “)


All Downloads/Hosters are compatible

Download 1
Turbobit.net
KatFile.com
Rapidgator.net
Download 2
Turbobit.net
KatFile.com
Rapidgator.net

Tracklist:

1 - Leave In Silence - 4:48
2 - My Secret Garden - 4:46
3 - Monument - 3:14
4 - Nothing To Fear - 4:16
5 - See You - 4:33
6 - Satellite - 4:43
7 - The Meaning Of Love - 3:06
8 - A Photograph Of You - 3:05
9 - Shouldn't Have Done That - 3:13
10 - The Sun & The Rainfall - 5:05

EAC-Log, CUE-Sheed & NFO:

Click to open spoiler
Exact Audio Copy V0.99 prebeta 4 from 23. January 2008

EAC extraction logfile from 16. March 2008, 0:18

Depeche Mode / A Broken Frame

Used drive : ASUS DRW-1608P2S Adapter: 1 ID: 0

Read mode : Secure
Utilize accurate stream : Yes
Defeat audio cache : Yes
Make use of C2 pointers : No

Read offset correction : 48
Overread into Lead-In and Lead-Out : No
Fill up missing offset samples with silence : Yes
Delete leading and trailing silent blocks : No
Null samples used in CRC calculations : Yes
Used interface : Native Win32 interface for Win NT & 2000
Gap handling : Appended to previous track

Used output format : User Defined Encoder
Selected bitrate : 768 kBit/s
Quality : High
Add ID3 tag : No
Command line compressor : C:\Program Files (x86)\Exact Audio Copy\FLAC\FLAC.EXE
Additional command line options : -8 -V -T “ARTIST=%a” -T “TITLE=%t” -T “ALBUM=%g” -T “DATE=%y” -T “TRACKNUMBER=%n” -T “GENRE=%m” -T “COMMENT=EAC FLAC -8” %s

TOC of the extracted CD

Track | Start | Length | Start sector | End sector
———————————————————
1 | 0:00.33 | 6:32.45 | 33 | 29477
2 | 6:33.03 | 4:47.17 | 29478 | 51019
3 | 11:20.20 | 3:16.08 | 51020 | 65727
4 | 14:36.28 | 4:19.05 | 65728 | 85157
5 | 18:55.33 | 4:35.05 | 85158 | 105787
6 | 23:30.38 | 4:44.50 | 105788 | 127137
7 | 28:15.13 | 3:07.07 | 127138 | 141169
8 | 31:22.20 | 4:23.55 | 141170 | 160949
9 | 35:46.00 | 3:05.25 | 160950 | 174849
10 | 38:51.25 | 3:23.05 | 174850 | 190079
11 | 42:14.30 | 4:54.08 | 190080 | 212137

Track 1

Filename H:\Temp\01. Depeche Mode – Leave In Silence.wav

Pre-gap length 0:00:02.33

Peak level 75.9 %
Track quality 100.0 %
Test CRC 4E92CFE5
Copy CRC 4E92CFE5
Accurately ripped (confidence 26) [1ED4E386]
Copy OK

Track 2

Filename H:\Temp\02. Depeche Mode – My Secret Garden.wav

Pre-gap length 0:00:00.60

Peak level 55.1 %
Track quality 99.9 %
Test CRC F5CF2280
Copy CRC F5CF2280
Accurately ripped (confidence 25) [2EFB089D]
Copy OK

Track 3

Filename H:\Temp\03. Depeche Mode – Monument.wav

Pre-gap length 0:00:00.60

Peak level 62.3 %
Track quality 100.0 %
Test CRC 301B80AE
Copy CRC 301B80AE
Accurately ripped (confidence 26) [3D14A757]
Copy OK

Track 4

Filename H:\Temp\04. Depeche Mode – Nothing To Fear.wav

Pre-gap length 0:00:01.28

Peak level 57.2 %
Track quality 100.0 %
Test CRC 4F4343D3
Copy CRC 4F4343D3
Accurately ripped (confidence 26) [762F644D]
Copy OK

Track 5

Filename H:\Temp\05. Depeche Mode – See You.wav

Pre-gap length 0:00:02.33

Peak level 73.3 %
Track quality 100.0 %
Test CRC D8B3893A
Copy CRC D8B3893A
Accurately ripped (confidence 26) [C33B7B93]
Copy OK

Track 6

Filename H:\Temp\06. Depeche Mode – Satellite.wav

Pre-gap length 0:00:01.25

Peak level 45.1 %
Track quality 100.0 %
Test CRC 699EEFF2
Copy CRC 699EEFF2
Accurately ripped (confidence 26) [0F278703]
Copy OK

Track 7

Filename H:\Temp\07. Depeche Mode – The Meaning Of Love.wav

Pre-gap length 0:00:01.65

Peak level 65.3 %
Track quality 100.0 %
Test CRC 8A80C7B2
Copy CRC 8A80C7B2
Accurately ripped (confidence 26) [A365CFC5]
Copy OK

Track 8

Filename H:\Temp\08. Depeche Mode – Further Excerpts From- My Secret Garden.wav

Pre-gap length 0:00:01.12

Peak level 69.3 %
Track quality 100.0 %
Test CRC CD0FEE11
Copy CRC CD0FEE11
Accurately ripped (confidence 26) [98EFA966]
Copy OK

Track 9

Filename H:\Temp\09. Depeche Mode – A Photograph Of You.wav

Pre-gap length 0:00:00.62

Peak level 66.3 %
Track quality 100.0 %
Test CRC 0F50C53E
Copy CRC 0F50C53E
Accurately ripped (confidence 26) [D83E1AF5]
Copy OK

Track 10

Filename H:\Temp\10. Depeche Mode – Shouldn’t Have Done That.wav

Peak level 48.2 %
Track quality 100.0 %
Test CRC E29A38D7
Copy CRC E29A38D7
Accurately ripped (confidence 26) [C1E2B257]
Copy OK

Track 11

Filename H:\Temp\11. Depeche Mode – The Sun & The Rainfall.wav

Peak level 59.9 %
Track quality 100.0 %
Test CRC 3E753018
Copy CRC 3E753018
Accurately ripped (confidence 23) [B098F05F]
Copy OK

All tracks accurately ripped

No errors occurred

End of status report

REM COMMENT “CUETools generated dummy CUE sheet”
FILE “01 – Leave in Silence.flac” WAVE
TRACK 01 AUDIO
INDEX 01 00:00:00
FILE “02 – My Secret Garden.flac” WAVE
TRACK 02 AUDIO
INDEX 01 00:00:00
FILE “03 – Monument.flac” WAVE
TRACK 03 AUDIO
INDEX 01 00:00:00
FILE “04 – Nothing to Fear.flac” WAVE
TRACK 04 AUDIO
INDEX 01 00:00:00
FILE “05 – See You.flac” WAVE
TRACK 05 AUDIO
INDEX 01 00:00:00
FILE “06 – Satellite.flac” WAVE
TRACK 06 AUDIO
INDEX 01 00:00:00
FILE “07 – The Meaning of Love.flac” WAVE
TRACK 07 AUDIO
INDEX 01 00:00:00
FILE “08 – A Photograph of You.flac” WAVE
TRACK 08 AUDIO
INDEX 01 00:00:00
FILE “09 – Shouldn’t Have Done That.flac” WAVE
TRACK 09 AUDIO
INDEX 01 00:00:00
FILE “10 – The Sun & the Rainfall.flac” WAVE
TRACK 10 AUDIO
INDEX 01 00:00:00


Leave a Reply

Your email address will not be published. Required fields are marked *

This site uses Akismet to reduce spam. Learn how your comment data is processed.