Depeche Mode – 101 (Disc A & B)




Artist: Depeche Mode
Year: 1989
Genre: Rock
Notes: Discogs
Add. Notes:
Cover incl.: Yes
Encoder: FLAC
Bitrate: ~900 kBit/s (44.1 kHz/16 Bit/s)
Log & Cue incl.: Yes
Size: 603,32 MB
Password: “slam” (without ” “)


All Downloads/Hosters are compatible

Download 1
Turbobit.net
KatFile.com
Rapidgator.net
Download 2
Turbobit.net
KatFile.com
Rapidgator.net

Tracklist:

1-1 - Pimpf - 0:57
1-2 - Behind The Wheel - 5:54
1-3 - Strangelove - 4:49
1-4 - Sacred - 5:12
1-5 - Something To Do - 3:51
1-6 - Blasphemous Rumours - 5:09
1-7 - Stripped - 6:45
1-8 - Somebody - 4:36
1-9 - Things You Said - 4:18
2-1 - Black Celebration - 4:54
2-2 - Shake The Disease - 5:10
2-3 - Nothing - 4:36
2-4 - Pleasure Little Treasure - 4:38
2-5 - People Are People - 4:59
2-6 - A Question Of Time - 4:12
2-7 - Never Let Me Down Again - 
6:40
2-8 - A Question Of Lust - 4:07
2-9 - Master And Servant - 4:30
2-10 - Just Cant Get Enough - 4:01
2-11 - Everything Counts - 6:31

EAC-Log, CUE-Sheed & NFO:

Click to open spoiler
Exact Audio Copy V0.99 prebeta 4 from 23. January 2008

EAC extraction logfile from 22. March 2008, 23:02

Depeche Mode / 101 – Disc A

Used drive : ASUS DRW-1608P2S Adapter: 1 ID: 0

Read mode : Secure
Utilize accurate stream : Yes
Defeat audio cache : Yes
Make use of C2 pointers : No

Read offset correction : 48
Overread into Lead-In and Lead-Out : No
Fill up missing offset samples with silence : Yes
Delete leading and trailing silent blocks : No
Null samples used in CRC calculations : Yes
Used interface : Native Win32 interface for Win NT & 2000
Gap handling : Appended to previous track

Used output format : User Defined Encoder
Selected bitrate : 768 kBit/s
Quality : High
Add ID3 tag : No
Command line compressor : C:\Program Files (x86)\Exact Audio Copy\FLAC\FLAC.EXE
Additional command line options : -8 -V -T “ARTIST=%a” -T “TITLE=%t” -T “ALBUM=%g” -T “DATE=%y” -T “TRACKNUMBER=%n” -T “GENRE=%m” -T “COMMENT=EAC FLAC -8” %s

TOC of the extracted CD

Track | Start | Length | Start sector | End sector
———————————————————
1 | 0:00.32 | 0:58.63 | 32 | 4444
2 | 0:59.20 | 5:49.35 | 4445 | 30654
3 | 6:48.55 | 4:55.32 | 30655 | 52811
4 | 11:44.12 | 5:09.30 | 52812 | 76016
5 | 16:53.42 | 3:54.03 | 76017 | 93569
6 | 20:47.45 | 5:09.17 | 93570 | 116761
7 | 25:56.62 | 6:44.70 | 116762 | 147131
8 | 32:41.57 | 4:38.10 | 147132 | 167991
9 | 37:19.67 | 4:17.30 | 167992 | 187296

Track 1

Filename H:\Temp\01. Depeche Mode – Pimpf.wav

Pre-gap length 0:00:02.32

Peak level 54.4 %
Track quality 100.0 %
Test CRC 8298C5BB
Copy CRC 8298C5BB
Accurately ripped (confidence 16) [48BD64D3]
Copy OK

Track 2

Filename H:\Temp\02. Depeche Mode – Behind The Wheel.wav

Peak level 57.9 %
Track quality 100.0 %
Test CRC 8F633EF6
Copy CRC 8F633EF6
Accurately ripped (confidence 15) [A0A468A3]
Copy OK

Track 3

Filename H:\Temp\03. Depeche Mode – Strangelove.wav

Peak level 59.9 %
Track quality 100.0 %
Test CRC 16317B6F
Copy CRC 16317B6F
Accurately ripped (confidence 17) [D1CF5DF6]
Copy OK

Track 4

Filename H:\Temp\04. Depeche Mode – Sacred.wav

Peak level 57.4 %
Track quality 100.0 %
Test CRC C459A3D5
Copy CRC C459A3D5
Accurately ripped (confidence 15) [81ABD50C]
Copy OK

Track 5

Filename H:\Temp\05. Depeche Mode – Something To Do.wav

Peak level 50.4 %
Track quality 100.0 %
Test CRC 751FE95F
Copy CRC 751FE95F
Accurately ripped (confidence 16) [BC93FFBE]
Copy OK

Track 6

Filename H:\Temp\06. Depeche Mode – Blasphemous Rumours.wav

Peak level 53.9 %
Track quality 100.0 %
Test CRC 98DA4849
Copy CRC 98DA4849
Accurately ripped (confidence 17) [9A8B1D17]
Copy OK

Track 7

Filename H:\Temp\07. Depeche Mode – Stripped.wav

Peak level 74.3 %
Track quality 100.0 %
Test CRC 358466B5
Copy CRC 358466B5
Accurately ripped (confidence 15) [0B4316C5]
Copy OK

Track 8

Filename H:\Temp\08. Depeche Mode – Somebody.wav

Peak level 55.0 %
Track quality 100.0 %
Test CRC 5A2C2013
Copy CRC 5A2C2013
Accurately ripped (confidence 17) [50334685]
Copy OK

Track 9

Filename H:\Temp\09. Depeche Mode – Things You Said.wav

Peak level 47.7 %
Track quality 100.0 %
Test CRC A66FCCBB
Copy CRC A66FCCBB
Accurately ripped (confidence 16) [0AC72802]
Copy OK

All tracks accurately ripped

No errors occurred

End of status report

REM COMMENT “CUETools generated dummy CUE sheet”
FILE “01 – Pimpf.flac” WAVE
TRACK 01 AUDIO
INDEX 01 00:00:00
FILE “02 – Behind the Wheel.flac” WAVE
TRACK 02 AUDIO
INDEX 01 00:00:00
FILE “03 – Strangelove.flac” WAVE
TRACK 03 AUDIO
INDEX 01 00:00:00
FILE “04 – Sacred.flac” WAVE
TRACK 04 AUDIO
INDEX 01 00:00:00
FILE “05 – Something to Do.flac” WAVE
TRACK 05 AUDIO
INDEX 01 00:00:00
FILE “06 – Blasphemous Rumours.flac” WAVE
TRACK 06 AUDIO
INDEX 01 00:00:00
FILE “07 – Stripped.flac” WAVE
TRACK 07 AUDIO
INDEX 01 00:00:00
FILE “08 – Somebody.flac” WAVE
TRACK 08 AUDIO
INDEX 01 00:00:00
FILE “09 – Things You Said.flac” WAVE
TRACK 09 AUDIO
INDEX 01 00:00:00

Exact Audio Copy V0.99 prebeta 4 from 23. January 2008

EAC extraction logfile from 22. March 2008, 23:21

Depeche Mode / 101 – Disc B

Used drive : ASUS DRW-1608P2S Adapter: 1 ID: 0

Read mode : Secure
Utilize accurate stream : Yes
Defeat audio cache : Yes
Make use of C2 pointers : No

Read offset correction : 48
Overread into Lead-In and Lead-Out : No
Fill up missing offset samples with silence : Yes
Delete leading and trailing silent blocks : No
Null samples used in CRC calculations : Yes
Used interface : Native Win32 interface for Win NT & 2000
Gap handling : Appended to previous track

Used output format : User Defined Encoder
Selected bitrate : 768 kBit/s
Quality : High
Add ID3 tag : No
Command line compressor : C:\Program Files (x86)\Exact Audio Copy\FLAC\FLAC.EXE
Additional command line options : -8 -V -T “ARTIST=%a” -T “TITLE=%t” -T “ALBUM=%g” -T “DATE=%y” -T “TRACKNUMBER=%n” -T “GENRE=%m” -T “COMMENT=EAC FLAC -8” %s

TOC of the extracted CD

Track | Start | Length | Start sector | End sector
———————————————————
1 | 0:00.32 | 4:55.38 | 32 | 22194
2 | 4:55.70 | 5:10.42 | 22195 | 45486
3 | 10:06.37 | 4:36.48 | 45487 | 66234
4 | 14:43.10 | 4:38.52 | 66235 | 87136
5 | 19:21.62 | 4:59.05 | 87137 | 109566
6 | 24:20.67 | 4:13.00 | 109567 | 128541
7 | 28:33.67 | 6:40.38 | 128542 | 158579
8 | 35:14.30 | 4:07.10 | 158580 | 177114
9 | 39:21.40 | 4:30.10 | 177115 | 197374
10 | 43:51.50 | 4:02.72 | 197375 | 215596
11 | 47:54.47 | 6:28.50 | 215597 | 244746

Track 1

Filename H:\Temp\01. Depeche Mode – Black Celebration.wav

Pre-gap length 0:00:02.32

Peak level 49.9 %
Track quality 99.9 %
Test CRC 686C1AD6
Copy CRC 686C1AD6
Accurately ripped (confidence 16) [83A89B45]
Copy OK

Track 2

Filename H:\Temp\02. Depeche Mode – Shake The Disease.wav

Peak level 55.8 %
Track quality 100.0 %
Test CRC D8D0E19F
Copy CRC D8D0E19F
Accurately ripped (confidence 17) [EE7E7D11]
Copy OK

Track 3

Filename H:\Temp\03. Depeche Mode – Nothing.wav

Peak level 60.3 %
Track quality 100.0 %
Test CRC FEBCEA40
Copy CRC FEBCEA40
Accurately ripped (confidence 17) [913EE39F]
Copy OK

Track 4

Filename H:\Temp\04. Depeche Mode – Pleasure Little Treasure.wav

Peak level 53.7 %
Track quality 100.0 %
Test CRC 2659C5EF
Copy CRC 2659C5EF
Accurately ripped (confidence 17) [72B993BE]
Copy OK

Track 5

Filename H:\Temp\05. Depeche Mode – People Are People.wav

Peak level 60.9 %
Track quality 100.0 %
Test CRC ACE9EE5C
Copy CRC ACE9EE5C
Accurately ripped (confidence 18) [ED8E1D01]
Copy OK

Track 6

Filename H:\Temp\06. Depeche Mode – A Question Of Time.wav

Peak level 51.7 %
Track quality 99.9 %
Test CRC C4B848CB
Copy CRC C4B848CB
Accurately ripped (confidence 17) [EEABF410]
Copy OK

Track 7

Filename H:\Temp\07. Depeche Mode – Never Let Me Down Again.wav

Peak level 68.8 %
Track quality 100.0 %
Test CRC 9153BE42
Copy CRC 9153BE42
Accurately ripped (confidence 17) [665184F4]
Copy OK

Track 8

Filename H:\Temp\08. Depeche Mode – A Question Of Lust.wav

Peak level 59.9 %
Track quality 100.0 %
Test CRC 0E252467
Copy CRC 0E252467
Accurately ripped (confidence 17) [3440DFED]
Copy OK

Track 9

Filename H:\Temp\09. Depeche Mode – Master and Servant.wav

Peak level 57.1 %
Track quality 100.0 %
Test CRC 3AA7D7C4
Copy CRC 3AA7D7C4
Accurately ripped (confidence 17) [2F19BD64]
Copy OK

Track 10

Filename H:\Temp\10. Depeche Mode – Just Can’t Get Enough.wav

Peak level 58.3 %
Track quality 100.0 %
Test CRC A0BCF3D7
Copy CRC A0BCF3D7
Accurately ripped (confidence 18) [E38A076B]
Copy OK

Track 11

Filename H:\Temp\11. Depeche Mode – Everything Counts.wav

Peak level 52.2 %
Track quality 100.0 %
Test CRC 594D197D
Copy CRC 594D197D
Accurately ripped (confidence 16) [8442CDC3]
Copy OK

All tracks accurately ripped

No errors occurred

End of status report

REM COMMENT “CUETools generated dummy CUE sheet”
FILE “01 – Black Celebration.flac” WAVE
TRACK 01 AUDIO
INDEX 01 00:00:00
FILE “02 – Shake the Disease.flac” WAVE
TRACK 02 AUDIO
INDEX 01 00:00:00
FILE “03 – Nothing.flac” WAVE
TRACK 03 AUDIO
INDEX 01 00:00:00
FILE “04 – Pleasure Little Treasure.flac” WAVE
TRACK 04 AUDIO
INDEX 01 00:00:00
FILE “05 – People Are People.flac” WAVE
TRACK 05 AUDIO
INDEX 01 00:00:00
FILE “06 – A Question of Time.flac” WAVE
TRACK 06 AUDIO
INDEX 01 00:00:00
FILE “07 – Never Let Me Down Again.flac” WAVE
TRACK 07 AUDIO
INDEX 01 00:00:00
FILE “08 – A Question of Lust.flac” WAVE
TRACK 08 AUDIO
INDEX 01 00:00:00
FILE “09 – Master and Servant.flac” WAVE
TRACK 09 AUDIO
INDEX 01 00:00:00
FILE “10 – Just Can’t Get Enough.flac” WAVE
TRACK 10 AUDIO
INDEX 01 00:00:00
FILE “11 – Everything Counts.flac” WAVE
TRACK 11 AUDIO
INDEX 01 00:00:00


Leave a Reply

Your email address will not be published. Required fields are marked *

This site uses Akismet to reduce spam. Learn how your comment data is processed.