Deftones – White Pony




No Cover available

Artist: Deftones
Year: 2000
Genre: Metal
Notes: Discogs
Add. Notes:
Watch Songs on: YouTube
Cover incl.: Yes
Encoder: FLAC
Bitrate: ~1000 kBit/s (44.1 kHz/16 Bit/s)
Log & Cue incl.: Yes/Yes
Size: 386 MB
Password: “slam” (without ” “)


All Downloads/Hosters are compatible

Download 1
KatFile.com
Turbobit.net
FileFactory.com
Rapidgator.net
Download 2
KatFile.com
Turbobit.net
FileFactory.com
Rapidgator.net

Tracklist:

1 Back To School (Mini Maggit) 3:57
2 Feiticeira 3:09
3 Digital Bath 4:15
4 Elite 4:01
5 RX Queen 4:27
6 Street Carp 2:41
7 Teenager 3:20
8 Knife Prty 4:49
9 Korea 3:23
10 Passenger 6:07
11 Change (In The House Of Flies) 
4:49
12 Pink Maggit 7:32

EAC-Log, CUE-Sheed & NFO:

Click to open spoiler
Exact Audio Copy V1.0 beta 3 from 29. August 2011

Отчёт EAC об извлечении, выполненном 23. сентября 2013, 15:08

Deftones / White Pony

Дисковод: ASUS BW-12B1ST Adapter: 3 ID: 0

Режим чтения : Достоверность
Использование точного потока : Да
Отключение кэша аудио : Да
Использование указателей C2 : Нет

Коррекция смещения при чтении : 6
Способность читать области Lead-in и Lead-out : Нет
Заполнение пропущенных сэмплов тишиной : Да
Удаление блоков с тишиной в начале и конце : Нет
При вычислениях CRC использовались нулевые сэмплы : Да
Интерфейс : Встроенный Win32-интерфейс для Win NT/2000

Выходной формат : Внутренние WAV-операции
Формат сэмплов : 44.100 Гц; 16 бит; стерео

TOC извлечённого CD

Трек | Старт | Длительность | Начальный сектор | Конечный сектор
———————————————————————
1 | 0:00.00 | 3:57.12 | 0 | 17786
2 | 3:57.12 | 3:09.57 | 17787 | 32018
3 | 7:06.69 | 4:15.28 | 32019 | 51171
4 | 11:22.22 | 4:01.60 | 51172 | 69306
5 | 15:24.07 | 4:27.55 | 69307 | 89386
6 | 19:51.62 | 2:41.45 | 89387 | 101506
7 | 22:33.32 | 3:20.35 | 101507 | 116541
8 | 25:53.67 | 4:49.15 | 116542 | 138231
9 | 30:43.07 | 3:23.45 | 138232 | 153501
10 | 34:06.52 | 6:08.50 | 153502 | 181151
11 | 40:15.27 | 5:01.13 | 181152 | 203739
12 | 45:16.40 | 7:32.55 | 203740 | 237694
13 | 55:21.20 | 9:14.26 | 249095 | 290670

Характеристики диапазона извлечения и сообщения об ошибках

Выбранный диапазон

Имя файла D:\EAC\Deftones – 2000 – White Pony (Maverick – 9-47930-2)\Deftones – 2000 – White Pony.wav

Пиковый уровень 100.0 %
Скорость извлечения 7.4 X
Качество диапазона 99.9 %
CRC теста B6EABD2F
CRC копии B6EABD2F
Копирование… OK

Ошибок не произошло

AccurateRip: сводка

Трек 1 отсутствует в базе данных
Трек 2 отсутствует в базе данных
Трек 3 отсутствует в базе данных
Трек 4 отсутствует в базе данных
Трек 5 отсутствует в базе данных
Трек 6 отсутствует в базе данных
Трек 7 отсутствует в базе данных
Трек 8 отсутствует в базе данных
Трек 9 отсутствует в базе данных
Трек 10 отсутствует в базе данных
Трек 11 отсутствует в базе данных
Трек 12 отсутствует в базе данных

Ни одного трека нет в базе AccurateRip

Конец отчёта

==== Контрольная сумма отчёта 8CFBF3E42F4373375A32ABF9FD2D8472F8215E00B5D7FCDE05B827350BDFEBDB ====

REM GENRE “Alternative Metal”
REM DATE 2000
REM DISCID B80F230D
REM COMMENT “ExactAudioCopy v1.0b3”
CATALOG 0093624793021
PERFORMER “Deftones”
TITLE “White Pony”
FILE “Deftones – 2000 – White Pony.flac” WAVE
TRACK 01 AUDIO
TITLE “Back To School (Mini Maggit)”
PERFORMER “Deftones”
ISRC USMV20000163
INDEX 01 00:00:00
TRACK 02 AUDIO
TITLE “Feiticeira”
PERFORMER “Deftones”
ISRC USMV20000030
INDEX 00 03:57:10
INDEX 01 03:57:12
TRACK 03 AUDIO
TITLE “Digital Bath”
PERFORMER “Deftones”
ISRC USMV20000031
INDEX 00 07:06:67
INDEX 01 07:06:69
TRACK 04 AUDIO
TITLE “Elite”
PERFORMER “Deftones”
ISRC USMV20000032
INDEX 00 11:22:17
INDEX 01 11:22:22
TRACK 05 AUDIO
TITLE “Rx Queen”
PERFORMER “Deftones”
ISRC USMV20000033
INDEX 00 15:24:05
INDEX 01 15:24:07
TRACK 06 AUDIO
TITLE “Street Carp”
PERFORMER “Deftones”
ISRC USMV20000034
INDEX 00 19:51:57
INDEX 01 19:51:62
TRACK 07 AUDIO
TITLE “Teenager”
PERFORMER “Deftones”
ISRC USMV20000035
INDEX 00 22:33:02
INDEX 01 22:33:32
TRACK 08 AUDIO
TITLE “Knife Prty”
PERFORMER “Deftones”
ISRC USMV20000036
INDEX 00 25:53:65
INDEX 01 25:53:67
TRACK 09 AUDIO
TITLE “Korea”
PERFORMER “Deftones”
ISRC USMV20000037
INDEX 00 30:43:05
INDEX 01 30:43:07
TRACK 10 AUDIO
TITLE “Passenger”
PERFORMER “Deftones”
ISRC USMV20000038
INDEX 00 34:06:47
INDEX 01 34:06:52
TRACK 11 AUDIO
TITLE “Change (In The House Of Flies)”
PERFORMER “Deftones”
ISRC USMV20000039
INDEX 00 40:14:40
INDEX 01 40:15:27
TRACK 12 AUDIO
TITLE “Pink Maggit”
PERFORMER “Deftones”
ISRC USMV20000040
INDEX 00 45:14:47
INDEX 01 45:16:40


Leave a Reply

Your email address will not be published. Required fields are marked *

This site uses Akismet to reduce spam. Learn how your comment data is processed.