Deftones – White Pony (Limited Edition)




Artist: Deftones
Year: 2000
Genre: Metal
Notes: Discogs
Add. Notes: Limited Edition
Cover incl.: Yes
Encoder: FLAC
Bitrate: ~1000 kBit/s (44.1 kHz/16 Bit/s)
Log & Cue incl.: Yes/Yes
Size: 390 MB
Password: “slam” (without ” “)


All Downloads/Hosters are compatible

Download 1
KatFile.com
Turbobit.net
FileFactory.com
Rapidgator.net
Download 2
KatFile.com
Turbobit.net
FileFactory.com
Rapidgator.net

Tracklist:

1 Feiticeira 3:09
2 Digital Bath 4:15
3 Elite 4:01
4 RX Queen 4:27
5 Street Carp 2:41
6 Teenager 3:20
7 Knife Prty 4:49
8 Korea 3:23
9 Passenger 6:07
10 Change (In The House Of Flies) 4:59
11 Pink Maggit 7:32

Bonus Track:
12 The Boy's Republic 4:35

EAC-Log, CUE-Sheed & NFO:

Click to open spoiler
REM GENRE “Nu Metal”
REM DATE 2000
REM DISCID BF0F520D
REM COMMENT “ExactAudioCopy v1.0b3”
CATALOG 0093624770527
PERFORMER “Deftones”
TITLE “White Pony”
FILE “Deftones – White Pony.flac” WAVE
TRACK 01 AUDIO
TITLE “Feiticeira”
PERFORMER “Deftones”
ISRC USMV20000030
INDEX 01 00:00:00
TRACK 02 AUDIO
TITLE “Digital Bath”
PERFORMER “Deftones”
ISRC USMV20000031
INDEX 01 03:09:70
TRACK 03 AUDIO
TITLE “Elite”
PERFORMER “Deftones”
ISRC USMV20000032
INDEX 01 07:25:17
TRACK 04 AUDIO
TITLE “Rx Queen”
PERFORMER “Deftones”
ISRC USMV20000033
INDEX 01 11:27:05
TRACK 05 AUDIO
TITLE “Street Carp”
PERFORMER “Deftones”
ISRC USMV20000034
INDEX 01 15:54:57
TRACK 06 AUDIO
TITLE “Teenager”
PERFORMER “Deftones”
ISRC USMV20000035
INDEX 00 18:36:15
INDEX 01 18:36:20
TRACK 07 AUDIO
TITLE “Knife Prty”
PERFORMER “Deftones”
ISRC USMV20000036
INDEX 01 21:56:65
TRACK 08 AUDIO
TITLE “Korea”
PERFORMER “Deftones”
ISRC USMV20000037
INDEX 01 26:46:07
TRACK 09 AUDIO
TITLE “Passenger”
PERFORMER “Deftones”
ISRC USMV20000038
INDEX 01 30:09:47
TRACK 10 AUDIO
TITLE “Change (In the House of Flies)”
PERFORMER “Deftones”
ISRC USMV20000039
INDEX 00 36:17:53
INDEX 01 36:18:15
TRACK 11 AUDIO
TITLE “Pink Maggit ”
PERFORMER “Deftones”
ISRC USMV20000040
INDEX 00 41:17:60
INDEX 01 41:19:27
TRACK 12 AUDIO
TITLE “The Boy’s Republic ”
PERFORMER “Deftones”
ISRC USMV20000046
INDEX 00 48:52:20
INDEX 01 48:57:50

Exact Audio Copy V1.0 beta 3 from 29. August 2011

Отчёт EAC об извлечении, выполненном 22. марта 2014, 16:53

Deftones / White Pony

Дисковод: Optiarc DVD RW AD-7203S Adapter: 4 ID: 0

Режим чтения : Достоверность
Использование точного потока : Да
Отключение кэша аудио : Да
Использование указателей C2 : Нет

Коррекция смещения при чтении : 48
Способность читать области Lead-in и Lead-out : Нет
Заполнение пропущенных сэмплов тишиной : Да
Удаление блоков с тишиной в начале и конце : Нет
При вычислениях CRC использовались нулевые сэмплы : Да
Интерфейс : Встроенный Win32-интерфейс для Win NT/2000

Выходной формат : Внутренние WAV-операции
Формат сэмплов : 44.100 Гц; 16 бит; стерео

TOC извлечённого CD

Трек | Старт | Длительность | Начальный сектор | Конечный сектор
———————————————————————
1 | 0:00.00 | 3:09.70 | 0 | 14244
2 | 3:09.70 | 4:15.22 | 14245 | 33391
3 | 7:25.17 | 4:01.63 | 33392 | 51529
4 | 11:27.05 | 4:27.52 | 51530 | 71606
5 | 15:54.57 | 2:41.38 | 71607 | 83719
6 | 18:36.20 | 3:20.45 | 83720 | 98764
7 | 21:56.65 | 4:49.17 | 98765 | 120456
8 | 26:46.07 | 3:23.40 | 120457 | 135721
9 | 30:09.47 | 6:08.43 | 135722 | 163364
10 | 36:18.15 | 5:01.12 | 163365 | 185951
11 | 41:19.27 | 7:38.23 | 185952 | 220324
12 | 48:57.50 | 4:38.12 | 220325 | 241186
13 | 56:07.62 | 9:14.26 | 252587 | 294162

Характеристики диапазона извлечения и сообщения об ошибках

Выбранный диапазон

Имя файла D:\Deftones – 2000 – White Pony (9 47705-2)\Deftones – White Pony.wav

Пиковый уровень 100.0 %
Скорость извлечения 1.2 X
Качество диапазона 100.0 %
CRC теста F0A68DAA
CRC копии F0A68DAA
Копирование… OK

Ошибок не произошло

AccurateRip: сводка

Трек 1 : извлечено точно (доверие 9) [C68E7C9F] (AR v2)
Трек 2 : извлечено точно (доверие 8) [C51C99CF] (AR v2)
Трек 3 : извлечено точно (доверие 9) [0F43BABD] (AR v2)
Трек 4 : извлечено точно (доверие 9) [79A71952] (AR v2)
Трек 5 : извлечено точно (доверие 9) [D68E854C] (AR v2)
Трек 6 : извлечено точно (доверие 9) [A37267E9] (AR v2)
Трек 7 : извлечено точно (доверие 9) [4B91ADFB] (AR v2)
Трек 8 : извлечено точно (доверие 7) [1B631314] (AR v2)
Трек 9 : извлечено точно (доверие 8) [271EDB77] (AR v2)
Трек 10 : извлечено точно (доверие 9) [E16AD254] (AR v2)
Трек 11 : извлечено точно (доверие 9) [2DB577E2] (AR v2)
Трек 12 : извлечено точно (доверие 9) [2F0401C9] (AR v2)

Все треки извлечены точно

Конец отчёта

==== Контрольная сумма отчёта A3113016ED5F907F3B7A276515D63780C0DBD40E3AB78FA5587ED0C6D67CB740 ====


Leave a Reply

Your email address will not be published. Required fields are marked *

Enter the text from the image below
 

This site uses Akismet to reduce spam. Learn how your comment data is processed.