Deftones – Saturday Night Wrist




Artist: Deftones
Year: 2006
Genre: Rock
Notes: Discogs
Add. Notes:
Cover incl.: Yes
Encoder: FLAC
Bitrate: ~1000 kBit/s (44.1 kHz/16 Bit/s)
Log & Cue incl.: Yes
Size: 351,6 MB
Password: “slam” (without ” “)


All Downloads/Hosters are compatible

Download 1
KatFile.com
Turbobit.net
FileFactory.com
Rapidgator.net
Download 2
KatFile.com
Turbobit.net
FileFactory.com
Rapidgator.net

Tracklist:

1 Hole In The Earth 4:09
2 Rapture 3:25
3 Beware 6:00
4 Cherry Waves 5:17
5 Mein 3:59
6 U,U,D,D,L,R,L,R,A,B,Select,Start 4:12
7 Xerces 3:42
8 Rats!Rats!Rats! 4:00
9 Pink Cellphone 5:04
10 Combat 4:46
11 Kimdracula 3:15
12 Rivière 3:45

EAC-Log, CUE-Sheed & NFO:

Click to open spoiler
Exact Audio Copy V1.0 beta 3 from 29. August 2011

Отчёт EAC об извлечении, выполненном 15. сентября 2012, 14:40

Deftones / Saturday Night Wrist

Дисковод: ASUS DRW-22B1ST Adapter: 3 ID: 0

Режим чтения : Достоверность
Использование точного потока : Да
Отключение кэша аудио : Да
Использование указателей C2 : Нет

Коррекция смещения при чтении : 6
Способность читать области Lead-in и Lead-out : Нет
Заполнение пропущенных сэмплов тишиной : Да
Удаление блоков с тишиной в начале и конце : Нет
При вычислениях CRC использовались нулевые сэмплы : Да
Интерфейс : Встроенный Win32-интерфейс для Win NT/2000

Выходной формат : Внутренние WAV-операции
Формат сэмплов : 44.100 Гц; 16 бит; стерео

TOC извлечённого CD

Трек | Старт | Длительность | Начальный сектор | Конечный сектор
———————————————————————
1 | 0:00.00 | 4:09.24 | 0 | 18698
2 | 4:09.24 | 3:25.39 | 18699 | 34112
3 | 7:34.63 | 6:00.50 | 34113 | 61162
4 | 13:35.38 | 5:17.53 | 61163 | 84990
5 | 18:53.16 | 3:59.09 | 84991 | 102924
6 | 22:52.25 | 4:12.39 | 102925 | 121863
7 | 27:04.64 | 3:42.61 | 121864 | 138574
8 | 30:47.50 | 4:00.63 | 138575 | 156637
9 | 34:48.38 | 5:04.65 | 156638 | 179502
10 | 39:53.28 | 4:46.20 | 179503 | 200972
11 | 44:39.48 | 3:15.59 | 200973 | 215656
12 | 47:55.32 | 3:45.18 | 215657 | 232549

Характеристики диапазона извлечения и сообщения об ошибках

Выбранный диапазон

Имя файла D:\check\Deftones – 2006 – Saturday Night Wrist\Deftones – 2006 – Saturday Night Wrist.wav

Пиковый уровень 100.0 %
Скорость извлечения 3.0 X
Качество диапазона 100.0 %
CRC теста E80A0DE9
CRC копии E80A0DE9
Копирование… OK

Ошибок не произошло

AccurateRip: сводка

Трек 1 точность не определена (достоверность 79) [68C46E2D], AccurateRip вернул [DEA59039] (AR v2)
Трек 2 точность не определена (достоверность 79) [045DBAA5], AccurateRip вернул [DEDB97C6] (AR v2)
Трек 3 точность не определена (достоверность 79) [F22FF58D], AccurateRip вернул [8107B43F] (AR v2)
Трек 4 точность не определена (достоверность 79) [ABEE92E0], AccurateRip вернул [1BCE84BE] (AR v2)
Трек 5 точность не определена (достоверность 78) [F95A3039], AccurateRip вернул [6040872B] (AR v2)
Трек 6 точность не определена (достоверность 79) [A9681F5B], AccurateRip вернул [5795C071] (AR v2)
Трек 7 точность не определена (достоверность 78) [8B371669], AccurateRip вернул [CD10115C] (AR v2)
Трек 8 точность не определена (достоверность 79) [48B6FB17], AccurateRip вернул [A9F61AA1] (AR v2)
Трек 9 точность не определена (достоверность 77) [5CE32961], AccurateRip вернул [977011DE] (AR v2)
Трек 10 точность не определена (достоверность 79) [7EDAE831], AccurateRip вернул [47CAA693] (AR v2)
Трек 11 точность не определена (достоверность 79) [F1239C37], AccurateRip вернул [E09DF9E2] (AR v2)
Трек 12 точность не определена (достоверность 78) [8FFB6514], AccurateRip вернул [B9F37C52] (AR v2)

Ни один трек не прошёл проверки на точность
В вашей базе может быть иной вариант штамповки диска

Конец отчёта

==== Контрольная сумма отчёта 79D27DF3E9B2C50B273E26E786933BD1371DC021E2D1B06CD78757EB73CC0941 ====

REM GENRE Alternative
REM DATE 2006
REM DISCID AE0C1C0C
REM COMMENT “ExactAudioCopy v1.0b3”
CATALOG 0093624323921
PERFORMER “Deftones”
TITLE “Saturday Night Wrist”
FILE “Deftones – 2006 – Saturday Night Wrist.flac” WAVE
TRACK 01 AUDIO
TITLE “Hole In The Earth”
PERFORMER “Deftones”
ISRC H2E220600261
INDEX 01 00:00:00
TRACK 02 AUDIO
TITLE “Rapture”
PERFORMER “Deftones”
ISRC H2E220600282
INDEX 01 04:09:24
TRACK 03 AUDIO
TITLE “Beware”
PERFORMER “Deftones”
ISRC H2E220600283
INDEX 01 07:34:63
TRACK 04 AUDIO
TITLE “Cherry Waves”
PERFORMER “Deftones”
ISRC H2E220600284
INDEX 01 13:35:38
TRACK 05 AUDIO
TITLE “Mein”
PERFORMER “Deftones”
ISRC H2E220600285
INDEX 01 18:53:16
TRACK 06 AUDIO
TITLE “U,U,D,D,L,R,L,R,A,B,Select,Start”
PERFORMER “Deftones”
ISRC H2E220600286
INDEX 00 22:51:19
INDEX 01 22:52:25
TRACK 07 AUDIO
TITLE “Xerces”
PERFORMER “Deftones”
ISRC H2E220600287
INDEX 01 27:04:64
TRACK 08 AUDIO
TITLE “Rats!Rats!Rats!”
PERFORMER “Deftones”
ISRC H2E220600288
INDEX 00 30:46:49
INDEX 01 30:47:50
TRACK 09 AUDIO
TITLE “Pink Cellphone”
PERFORMER “Deftones”
ISRC H2E220600289
INDEX 01 34:48:38
TRACK 10 AUDIO
TITLE “Combat”
PERFORMER “Deftones”
ISRC H2E220600290
INDEX 01 39:53:28
TRACK 11 AUDIO
TITLE “Kimdracula”
PERFORMER “Deftones”
ISRC H2E220600291
INDEX 01 44:39:48
TRACK 12 AUDIO
TITLE “Riviere”
PERFORMER “Deftones”
ISRC H2E220600292
INDEX 00 47:53:71
INDEX 01 47:55:32


Leave a Reply

Your email address will not be published. Required fields are marked *

Enter the text from the image below
 

This site uses Akismet to reduce spam. Learn how your comment data is processed.