Deftones – Koi No Yokan




[Total: 0    Average: 0/5]

Artist: Deftones
Year: 2012
Genre: Rock
Notes: Discogs
Add. Notes:
Cover incl.: Yes
Encoder: FLAC
Bitrate: ~1000 kBit/s (44.1 kHz/16 Bit/s)
Log & Cue incl.: Yes
Size: 359,3 MB
Password: “slam” (without ” “)


All Downloads/Hosters are compatible

Download 1
KatFile.com
Turbobit.net
FileFactory.com
Rapidgator.net
Download 2
KatFile.com
Turbobit.net
FileFactory.com
Rapidgator.net

Tracklist:

1 Swerve City 2:45
2 Romantic Dreams 4:38
3 Leathers 4:09
4 Poltergeist 3:31
5 Entombed 4:59
6 Graphic Nature 4:32
7 Tempest 6:05
8 Gauze 4:41
9 Rosemary 6:53
10 Goon Squad 5:40
11 What Happened To You? 3:54

EAC-Log, CUE-Sheed & NFO:

Click to open spoiler
Exact Audio Copy V1.0 beta 3 from 29. August 2011

Отчёт EAC об извлечении, выполненном 23. декабря 2012, 22:31

Deftones / Koi No Yokan

Дисковод: ASUS BW-12B1ST Adapter: 3 ID: 0

Режим чтения : Достоверность
Использование точного потока : Да
Отключение кэша аудио : Да
Использование указателей C2 : Нет

Коррекция смещения при чтении : 6
Способность читать области Lead-in и Lead-out : Нет
Заполнение пропущенных сэмплов тишиной : Да
Удаление блоков с тишиной в начале и конце : Нет
При вычислениях CRC использовались нулевые сэмплы : Да
Интерфейс : Встроенный Win32-интерфейс для Win NT/2000

Выходной формат : Внутренние WAV-операции
Формат сэмплов : 44.100 Гц; 16 бит; стерео

TOC извлечённого CD

Трек | Старт | Длительность | Начальный сектор | Конечный сектор
———————————————————————
1 | 0:00.00 | 2:44.74 | 0 | 12373
2 | 2:44.74 | 4:38.08 | 12374 | 33231
3 | 7:23.07 | 4:08.67 | 33232 | 51898
4 | 11:31.74 | 3:31.31 | 51899 | 67754
5 | 15:03.30 | 4:59.18 | 67755 | 90197
6 | 20:02.48 | 4:31.40 | 90198 | 110562
7 | 24:34.13 | 6:05.36 | 110563 | 137973
8 | 30:39.49 | 4:41.30 | 137974 | 159078
9 | 35:21.04 | 6:53.26 | 159079 | 190079
10 | 42:14.30 | 5:40.00 | 190080 | 215579
11 | 47:54.30 | 3:53.53 | 215580 | 233107

Характеристики диапазона извлечения и сообщения об ошибках

Выбранный диапазон

Имя файла D:\EAC\Deftones – 2012 – Koi No Yokan\Deftones – 2012 – Koi No Yokan.wav

Пиковый уровень 100.0 %
Скорость извлечения 3.4 X
Качество диапазона 100.0 %
CRC теста 10A64ACD
CRC копии 10A64ACD
Копирование… OK

Ошибок не произошло

AccurateRip: сводка

Трек 1 : извлечено точно (доверие 3) [6367B00E] (AR v1)
Трек 2 : извлечено точно (доверие 3) [BD8F13A1] (AR v1)
Трек 3 : извлечено точно (доверие 3) [9A1052C4] (AR v1)
Трек 4 : извлечено точно (доверие 3) [EBBCC062] (AR v1)
Трек 5 : извлечено точно (доверие 3) [0D8D9C6E] (AR v1)
Трек 6 : извлечено точно (доверие 3) [142B77E2] (AR v1)
Трек 7 : извлечено точно (доверие 3) [AB99B5E9] (AR v1)
Трек 8 : извлечено точно (доверие 3) [556A4110] (AR v1)
Трек 9 : извлечено точно (доверие 3) [211B9ACA] (AR v1)
Трек 10 : извлечено точно (доверие 2) [00C2304A] (AR v1)
Трек 11 : извлечено точно (доверие 3) [497C8C1A] (AR v1)

Все треки извлечены точно

Конец отчёта

==== Контрольная сумма отчёта E518897ABB28BE92E4C0DC8A04BD10486A651FCD3F9A6A96CBBAD3AE46CBCEA4 ====

REM GENRE “Hard Rock”
REM DATE 2012
REM DISCID 920C240B
REM COMMENT “ExactAudioCopy v1.0b3”
CATALOG 0093624947707
PERFORMER “Deftones”
TITLE “Koi No Yokan”
FILE “Deftones – 2012 – Koi No Yokan.flac” WAVE
TRACK 01 AUDIO
TITLE “Swerve City”
PERFORMER “Deftones”
ISRC USRE11200411
FLAGS DCP
INDEX 01 00:00:00
TRACK 02 AUDIO
TITLE “Romantic Dreams”
PERFORMER “Deftones”
ISRC USRE11200410
FLAGS DCP
INDEX 00 02:44:72
INDEX 01 02:44:74
TRACK 03 AUDIO
TITLE “Leathers”
PERFORMER “Deftones”
ISRC USRE11200471
FLAGS DCP
INDEX 00 07:23:05
INDEX 01 07:23:07
TRACK 04 AUDIO
TITLE “Poltergeist”
PERFORMER “Deftones”
ISRC USRE11200409
FLAGS DCP
INDEX 00 11:31:72
INDEX 01 11:31:74
TRACK 05 AUDIO
TITLE “Entombed”
PERFORMER “Deftones”
ISRC USRE11200412
FLAGS DCP
INDEX 00 15:03:28
INDEX 01 15:03:30
TRACK 06 AUDIO
TITLE “Graphic Nature”
PERFORMER “Deftones”
ISRC USRE11200413
FLAGS DCP
INDEX 00 20:02:46
INDEX 01 20:02:48
TRACK 07 AUDIO
TITLE “Tempest”
PERFORMER “Deftones”
ISRC USRE11200403
FLAGS DCP
INDEX 00 24:34:11
INDEX 01 24:34:13
TRACK 08 AUDIO
TITLE “Gauze”
PERFORMER “Deftones”
ISRC USRE11200414
FLAGS DCP
INDEX 00 30:39:47
INDEX 01 30:39:49
TRACK 09 AUDIO
TITLE “Rosemary”
PERFORMER “Deftones”
ISRC USRE11200415
FLAGS DCP
INDEX 00 35:21:02
INDEX 01 35:21:04
TRACK 10 AUDIO
TITLE “Goon Squad”
PERFORMER “Deftones”
ISRC USRE11200416
FLAGS DCP
INDEX 00 42:14:28
INDEX 01 42:14:30
TRACK 11 AUDIO
TITLE “What Happened to You?”
PERFORMER “Deftones”
ISRC USRE11200417
FLAGS DCP
INDEX 00 47:54:28
INDEX 01 47:54:30


Spread the Download

Leave a Reply

Your email address will not be published. Required fields are marked *

Enter the text from the image below
 

This site uses Akismet to reduce spam. Learn how your comment data is processed.