Deftones – Deftones




Artist: Deftones
Year: 2003
Genre: Metal
Notes: Discogs
Add. Notes:
Cover incl.: Yes
Encoder: FLAC
Bitrate: ~1000 kBit/s (44.1 kHz/16 Bit/s)
Log & Cue incl.: Yes
Size: 328 MB
Password: “slam” (without ” “)


All Downloads/Hosters are compatible

Download 1
KatFile.com
Turbobit.net
FileFactory.com
Rapidgator.net
Download 2
KatFile.com
Turbobit.net
FileFactory.com
Rapidgator.net

Tracklist:

1 - Hexagram - 4:08
2 - Needles And Pins - 3:22
3 - Minerva - 4:16
4 - Good Morning Beautiful - 3:27
5 - Deathblow - 5:27
6 - When Girls Telephone Boys - 4:35
7 - Battle-Axe - 5:00
8 - Lucky You - 4:09
9 - Bloody Cape - 3:36
10 - Anniversary Of An Uninteresting 
Event - 3:56
11 - Moana - 5:02

EAC-Log, CUE-Sheed & NFO:

Click to open spoiler
Exact Audio Copy V1.0 beta 3 from 29. August 2011

Отчёт EAC об извлечении, выполненном 15. сентября 2012, 17:20

Deftones / Deftones

Дисковод: ASUS DRW-22B1ST Adapter: 3 ID: 0

Режим чтения : Достоверность
Использование точного потока : Да
Отключение кэша аудио : Да
Использование указателей C2 : Нет

Коррекция смещения при чтении : 6
Способность читать области Lead-in и Lead-out : Нет
Заполнение пропущенных сэмплов тишиной : Да
Удаление блоков с тишиной в начале и конце : Нет
При вычислениях CRC использовались нулевые сэмплы : Да
Интерфейс : Встроенный Win32-интерфейс для Win NT/2000

Выходной формат : Внутренние WAV-операции
Формат сэмплов : 44.100 Гц; 16 бит; стерео

TOC извлечённого CD

Трек | Старт | Длительность | Начальный сектор | Конечный сектор
———————————————————————
1 | 0:00.00 | 4:09.07 | 0 | 18681
2 | 4:09.07 | 3:23.05 | 18682 | 33911
3 | 7:32.12 | 4:17.38 | 33912 | 53224
4 | 11:49.50 | 3:28.17 | 53225 | 68841
5 | 15:17.67 | 5:28.13 | 68842 | 93454
6 | 20:46.05 | 4:36.30 | 93455 | 114184
7 | 25:22.35 | 5:01.65 | 114185 | 136824
8 | 30:24.25 | 4:10.40 | 136825 | 155614
9 | 34:34.65 | 3:37.67 | 155615 | 171956
10 | 38:12.57 | 3:57.25 | 171957 | 189756
11 | 42:10.07 | 5:02.23 | 189757 | 212429
12 | 49:44.30 | 17:10.28 | 223830 | 301107

Характеристики диапазона извлечения и сообщения об ошибках

Выбранный диапазон

Имя файла D:\check\Deftones – 2003 – Deftones\Deftones – 2003 – Deftones.wav

Пиковый уровень 98.8 %
Скорость извлечения 3.0 X
Качество диапазона 100.0 %
CRC теста FEED8A3C
CRC копии FEED8A3C
Копирование… OK

Ошибок не произошло

AccurateRip: сводка

Трек 1 : извлечено точно (доверие 9) [D3E51505] (AR v1)
Трек 2 : извлечено точно (доверие 9) [E07F64BD] (AR v1)
Трек 3 : извлечено точно (доверие 9) [E4CAB842] (AR v1)
Трек 4 : извлечено точно (доверие 9) [E69E1CC8] (AR v1)
Трек 5 : извлечено точно (доверие 9) [4A86534B] (AR v1)
Трек 6 : извлечено точно (доверие 9) [5F604FEB] (AR v1)
Трек 7 : извлечено точно (доверие 9) [0461C324] (AR v1)
Трек 8 : извлечено точно (доверие 9) [AE8913EE] (AR v1)
Трек 9 : извлечено точно (доверие 9) [B29028E9] (AR v1)
Трек 10 : извлечено точно (доверие 9) [F81AB239] (AR v1)
Трек 11 : извлечено точно (доверие 7) [ABD6C474] (AR v1)

Все треки извлечены точно

Конец отчёта

==== Контрольная сумма отчёта 076047534F919309A730E5632CF673D5621B05A43F83BE14DFFB79F91EF6F15E ====

+REM GENRE “Hard Rock”
REM DATE 2003
REM DISCID A40FAE0C
REM COMMENT “ExactAudioCopy v1.0b3”
CATALOG 0093624835028
PERFORMER “Deftones”
TITLE “Deftones”
FILE “Deftones – 2003 – Deftones.flac” WAVE
TRACK 01 AUDIO
TITLE “Hexagram”
PERFORMER “Deftones”
ISRC H2E220300046
INDEX 01 00:00:00
TRACK 02 AUDIO
TITLE “Needles And Pins”
PERFORMER “Deftones”
ISRC H2E220300047
INDEX 01 04:09:07
TRACK 03 AUDIO
TITLE “Minerva”
PERFORMER “Deftones”
ISRC H2E220300027
INDEX 01 07:32:12
TRACK 04 AUDIO
TITLE “Good Morning Beautiful”
PERFORMER “Deftones”
ISRC H2E220300048
INDEX 01 11:49:50
TRACK 05 AUDIO
TITLE “Deathblow”
PERFORMER “Deftones”
ISRC H2E220300049
INDEX 01 15:17:67
TRACK 06 AUDIO
TITLE “When Girls Telephone Boys”
PERFORMER “Deftones”
ISRC H2E220300050
INDEX 01 20:46:05
TRACK 07 AUDIO
TITLE “Battle-Axe”
PERFORMER “Deftones”
ISRC H2E220300050
INDEX 01 25:22:35
TRACK 08 AUDIO
TITLE “Lucky You”
PERFORMER “Deftones”
ISRC H2E220300025
INDEX 01 30:24:25
TRACK 09 AUDIO
TITLE “Bloody Cape”
PERFORMER “Deftones”
ISRC H2E220300053
INDEX 01 34:34:65
TRACK 10 AUDIO
TITLE “Anniversary Of An Uninteresting Event”
PERFORMER “Deftones”
ISRC H2E220300053
INDEX 01 38:12:57
TRACK 11 AUDIO
TITLE “Moana”
PERFORMER “Deftones”
ISRC H2E220300055
INDEX 01 42:10:07


Leave a Reply

Your email address will not be published. Required fields are marked *

This site uses Akismet to reduce spam. Learn how your comment data is processed.