Deftones – Around The Fur




Artist: Deftones
Year: 1997
Genre: Metal
Notes: Discogs
Add. Notes:
Cover incl.: Yes
Encoder: FLAC
Bitrate: ~700 kBit/s (44.1 kHz/16 Bit/s)
Log & Cue incl.: Yes
Size: 361 MB
Password: “slam” (without ” “)


All Downloads/Hosters are compatible

Download 1
KatFile.com
Turbobit.net
Rapidgator.net
Download 2
KatFile.com
Turbobit.net
Rapidgator.net

Tracklist:

1 - My Own Summer (Shove It) - 
3:35
2 - Lhabia - 4:11
3 - Mascara - 3:45
4 - Around The Fur - 3:31
5 - Rickets - 2:42
6 - Be Quiet And Drive (Far Away) - 
5:08
7 - Lotion - 3:57
8 - Dai The Flu - 4:36
9 - Headup - 5:12
10.1 - MX - 37:19

EAC-Log, CUE-Sheed & NFO:

Click to open spoiler
Exact Audio Copy V1.0 beta 3 from 29. August 2011

Отчёт EAC об извлечении, выполненном 15. сентября 2012, 15:35

Deftones / Around The Fur

Дисковод: ASUS DRW-22B1ST Adapter: 3 ID: 0

Режим чтения : Достоверность
Использование точного потока : Да
Отключение кэша аудио : Да
Использование указателей C2 : Нет

Коррекция смещения при чтении : 6
Способность читать области Lead-in и Lead-out : Нет
Заполнение пропущенных сэмплов тишиной : Да
Удаление блоков с тишиной в начале и конце : Нет
При вычислениях CRC использовались нулевые сэмплы : Да
Интерфейс : Встроенный Win32-интерфейс для Win NT/2000

Выходной формат : Внутренние WAV-операции
Формат сэмплов : 44.100 Гц; 16 бит; стерео

TOC извлечённого CD

Трек | Старт | Длительность | Начальный сектор | Конечный сектор
———————————————————————
1 | 0:00.00 | 3:35.32 | 0 | 16156
2 | 3:35.32 | 4:11.13 | 16157 | 34994
3 | 7:46.45 | 3:45.22 | 34995 | 51891
4 | 11:31.67 | 3:31.55 | 51892 | 67771
5 | 15:03.47 | 2:42.60 | 67772 | 79981
6 | 17:46.32 | 5:08.10 | 79982 | 103091
7 | 22:54.42 | 3:57.55 | 103092 | 120921
8 | 26:52.22 | 4:36.43 | 120922 | 141664
9 | 31:28.65 | 5:12.72 | 141665 | 165136
10 | 36:41.62 | 37:18.55 | 165137 | 333041

Характеристики диапазона извлечения и сообщения об ошибках

Выбранный диапазон

Имя файла D:\check\Deftones – 1997 – Around The Fur\Deftones – 1997 – Around The Fur.wav

Пиковый уровень 99.8 %
Скорость извлечения 3.4 X
Качество диапазона 100.0 %
CRC теста A98073A8
CRC копии A98073A8
Копирование… OK

Ошибок не произошло

AccurateRip: сводка

Трек 1 : извлечено точно (доверие 2) [41EEA601] (AR v2)
Трек 2 : извлечено точно (доверие 2) [F37131C2] (AR v2)
Трек 3 : извлечено точно (доверие 2) [4BE0428B] (AR v2)
Трек 4 : извлечено точно (доверие 2) [59950650] (AR v2)
Трек 5 : извлечено точно (доверие 2) [475CF576] (AR v2)
Трек 6 : извлечено точно (доверие 2) [4EC458E9] (AR v2)
Трек 7 : извлечено точно (доверие 2) [B7058D4E] (AR v2)
Трек 8 : извлечено точно (доверие 2) [BC2A9BCF] (AR v2)
Трек 9 : извлечено точно (доверие 2) [84DD07E3] (AR v2)
Трек 10 : извлечено точно (доверие 15) [A7A019B7] (AR v1)

Все треки извлечены точно

Конец отчёта

==== Контрольная сумма отчёта B3BFD874146C98B5F1B2EE1081ECC1D7B57366AFBACACEDA3F394059C64CFD73 ====

REM GENRE Metal
REM DATE 1997
REM DISCID 8311580A
REM COMMENT “ExactAudioCopy v1.0b3”
CATALOG 0093624681021
PERFORMER “Deftones”
TITLE “Around The Fur”
FILE “Deftones – 1997 – Around The Fur.flac” WAVE
TRACK 01 AUDIO
TITLE “My Own Summer (Shove It)”
PERFORMER “Deftones”
ISRC H2E229700142
INDEX 01 00:00:00
TRACK 02 AUDIO
TITLE “Lhabia”
PERFORMER “Deftones”
ISRC H2E229700143
INDEX 01 03:35:32
TRACK 03 AUDIO
TITLE “Mascara”
PERFORMER “Deftones”
ISRC H2E229700144
INDEX 01 07:46:45
TRACK 04 AUDIO
TITLE “Around the Fur”
PERFORMER “Deftones”
ISRC H2E229700145
INDEX 01 11:31:67
TRACK 05 AUDIO
TITLE “Rickets”
PERFORMER “Deftones”
ISRC H2E229700146
INDEX 01 15:03:47
TRACK 06 AUDIO
TITLE “Be Quiet And Drive (Far Away)”
PERFORMER “Deftones”
ISRC H2E229700146
INDEX 01 17:46:32
TRACK 07 AUDIO
TITLE “Lotion”
PERFORMER “Deftones”
ISRC H2E229700148
INDEX 01 22:54:42
TRACK 08 AUDIO
TITLE “Dai the Flu”
PERFORMER “Deftones”
ISRC H2E229700149
INDEX 01 26:52:22
TRACK 09 AUDIO
TITLE “Head Up”
PERFORMER “Deftones”
ISRC H2E229700150
INDEX 01 31:28:65
TRACK 10 AUDIO
TITLE “Mx”
PERFORMER “Deftones”
ISRC H2E229700151
INDEX 01 36:41:62


Leave a Reply

Your email address will not be published. Required fields are marked *

Enter the text from the image below
 

This site uses Akismet to reduce spam. Learn how your comment data is processed.