Deftones – Adrenaline




Artist: Deftones
Year: 1995
Genre: Metal
Notes: Discogs
Add. Notes:
Cover incl.: Yes
Encoder: FLAC
Bitrate: ~1000 kBit/s (44.1 kHz/16 Bit/s)
Log & Cue incl.: Yes
Size: 323 MB
Password: “slam” (without ” “)


All Downloads/Hosters are compatible

Download 1
KatFile.com
Turbobit.net
Rapidgator.net
Turbobit.net
Download 2
KatFile.com
Turbobit.net
Rapidgator.net
Turbobit.net

Tracklist:

1 - Bored - 4:06
2 - Minus Blindfold - 4:04
3 - One Weak - 4:28
4 - Nosebleed - 4:26
5 - Lifter - 4:43
6 - Root - 3:41
7 - 7 Words - 3:43
8 - Birthmark - 4:18
9 - Engine No. 9 - 3:25
10 - Fireal - 6:35
11 - Fist - 3:35

EAC-Log, CUE-Sheed & NFO:

Click to open spoiler
Exact Audio Copy V1.0 beta 3 from 29. August 2011

Отчёт EAC об извлечении, выполненном 15. сентября 2012, 13:04

Deftones / Adrenaline

Дисковод: ASUS DRW-22B1ST Adapter: 3 ID: 0

Режим чтения : Достоверность
Использование точного потока : Да
Отключение кэша аудио : Да
Использование указателей C2 : Нет

Коррекция смещения при чтении : 6
Способность читать области Lead-in и Lead-out : Нет
Заполнение пропущенных сэмплов тишиной : Да
Удаление блоков с тишиной в начале и конце : Нет
При вычислениях CRC использовались нулевые сэмплы : Да
Интерфейс : Встроенный Win32-интерфейс для Win NT/2000

Выходной формат : Внутренние WAV-операции
Формат сэмплов : 44.100 Гц; 16 бит; стерео

TOC извлечённого CD

Трек | Старт | Длительность | Начальный сектор | Конечный сектор
———————————————————————
1 | 0:00.32 | 4:05.73 | 32 | 18479
2 | 4:06.30 | 4:04.22 | 18480 | 36801
3 | 8:10.52 | 4:28.73 | 36802 | 56974
4 | 12:39.50 | 4:26.00 | 56975 | 76924
5 | 17:05.50 | 4:43.10 | 76925 | 98159
6 | 21:48.60 | 3:41.00 | 98160 | 114734
7 | 25:29.60 | 3:43.67 | 114735 | 131526
8 | 29:13.52 | 4:18.35 | 131527 | 150911
9 | 33:32.12 | 3:25.15 | 150912 | 166301
10 | 36:57.27 | 6:35.25 | 166302 | 195951
11 | 43:32.52 | 3:35.43 | 195952 | 212119

Характеристики диапазона извлечения и сообщения об ошибках

Выбранный диапазон

Имя файла D:\check\Deftones – 1995 – Adrenaline\Deftones – 1995 – Adrenaline.wav

Пиковый уровень 100.0 %
Скорость извлечения 2.9 X
Качество диапазона 100.0 %
CRC теста 1108B7F6
CRC копии 1108B7F6
Копирование… OK

Ошибок не произошло

AccurateRip: сводка

Трек 1 : извлечено точно (доверие 21) [97CE06EF] (AR v1)
Трек 2 : извлечено точно (доверие 22) [51C5C0C8] (AR v1)
Трек 3 : извлечено точно (доверие 21) [0B6EAA62] (AR v1)
Трек 4 : извлечено точно (доверие 21) [831F7A3D] (AR v1)
Трек 5 : извлечено точно (доверие 21) [6CFAC3C8] (AR v1)
Трек 6 : извлечено точно (доверие 22) [54636DF7] (AR v1)
Трек 7 : извлечено точно (доверие 21) [E0545D96] (AR v1)
Трек 8 : извлечено точно (доверие 21) [0F305CEE] (AR v1)
Трек 9 : извлечено точно (доверие 21) [93A9928D] (AR v1)
Трек 10 : извлечено точно (доверие 21) [C3843D92] (AR v1)
Трек 11 : извлечено точно (доверие 21) [FA40F20A] (AR v1)

Все треки извлечены точно

Конец отчёта

==== Контрольная сумма отчёта 295005A2184416256F4E7047650748ECA3762FC8BF0F98CA82E62EAFAE6C8FCB ====

REM GENRE “Nu Metal”
REM DATE 1995
REM DISCID 7A0B0C0B
REM COMMENT “ExactAudioCopy v1.0b3”
CATALOG 0093624605423
PERFORMER “Deftones”
TITLE “Adrenaline”
FILE “Deftones – 1995 – Adrenaline.flac” WAVE
TRACK 01 AUDIO
TITLE “Bored”
PERFORMER “Deftones”
ISRC H2E229500022
INDEX 00 00:00:00
INDEX 01 00:00:32
TRACK 02 AUDIO
TITLE “Minus Blindfold”
PERFORMER “Deftones”
ISRC H2E220000048
INDEX 01 04:06:30
TRACK 03 AUDIO
TITLE “One Weak”
PERFORMER “Deftones”
ISRC H2E220000049
INDEX 01 08:10:52
TRACK 04 AUDIO
TITLE “Nosebleed”
PERFORMER “Deftones”
ISRC H2E220000050
INDEX 01 12:39:50
TRACK 05 AUDIO
TITLE “Lifter”
PERFORMER “Deftones”
ISRC H2E220000051
INDEX 01 17:05:50
TRACK 06 AUDIO
TITLE “Root”
PERFORMER “Deftones”
ISRC H2E220000051
INDEX 01 21:48:60
TRACK 07 AUDIO
TITLE “7 Words”
PERFORMER “Deftones”
ISRC H2E220000029
INDEX 01 25:29:60
TRACK 08 AUDIO
TITLE “Birthmark”
PERFORMER “Deftones”
ISRC H2E220000052
INDEX 01 29:13:52
TRACK 09 AUDIO
TITLE “Engine No. 9”
PERFORMER “Deftones”
ISRC H2E220000052
INDEX 01 33:32:12
TRACK 10 AUDIO
TITLE “Fireal”
PERFORMER “Deftones”
ISRC H2E220000054
INDEX 01 36:57:27
TRACK 11 AUDIO
TITLE “Fist”
PERFORMER “Deftones”
ISRC H2E220000055
INDEX 00 43:22:52
INDEX 01 43:32:52


Leave a Reply

Your email address will not be published. Required fields are marked *

This site uses Akismet to reduce spam. Learn how your comment data is processed.