Def Leppard – On Through The Night




No Cover available

Artist: Def Leppard
Year: 1980
Genre: Rock
Notes: Discogs
Add. Notes:
Watch Songs on: YouTube
Cover incl.: Yes
Encoder: FLAC
Bitrate: ~900 kBit/s (44.1 kHz/16 Bit/s)
Log & Cue incl.: Yes/Yes
Size: 297,6 MB
Password: “slam” (without ” “)


All Downloads/Hosters are compatible

Download 1
KatFile.com
Turbobit.net
FileFactory.com
Rapidgator.net
Download 2
KatFile.com
Turbobit.net
FileFactory.com
Rapidgator.net

Tracklist:

A1 Rock Brigade 
A2 Hello America 
A3 Sorrow Is A Woman 
A4 It Could Be You 
A5 Satellite 
A6 When The Walls Came Tumbling Down 
B1 Wasted 
B2 Rocks Off 
B3 It Don't Matter 
B4 Answer To The Master 
B5 Overture

EAC-Log, CUE-Sheed & NFO:

Click to open spoiler
Def Leppard
On Through The Night
p с 1980 Vertigo / Phonogram (Holland, original LP, 6360 180)

1. Rock Brigade 3.10
2. Hello America 3.28
3. Sorrow Is A Woman 3.55
4. It Could Be You 2.34
5. Satellite 4.27
6. When The Walls Came Tumblin’ Down 4.46

7. Wasted 3.46
8. Rock Off 3.45
9. It Don’t Matter 3.22
10. Answer To The Master 3.16
11. Overture 7.44

Total time: 44:12

состояние винила: слушали до одури, USED/VG; звук очень неплохой.
Устройство воспроизведения: Marantz TT 15S1 + GRADO Prestige Gold1
Предварительный усилитель: Marantz PM 66 Special Edition
АЦП: E-MU 1212m PCIe
Программа-оцифровщик: Adobe Audition 3.0
Оцифровка без дополнительной обработки.
Формат записи: 24bit / 192kHz
Формат раздачи: 24bit / 192kHz

PERFORMER “Def Leppard”
TITLE “On Through the Night”
REM Total length: 00:44:12
FILE “Def Leppard 1980 On Through The Night.wav” WAVE
TRACK 01 AUDIO
TITLE “Rock Brigade”
INDEX 01 00:00:00
TRACK 02 AUDIO
TITLE “Hello America”
INDEX 01 03:09:79
TRACK 03 AUDIO
TITLE “Sorrow Is a Woman”
INDEX 01 06:37:61
TRACK 04 AUDIO
TITLE “It Could Be You”
INDEX 01 10:32:50
TRACK 05 AUDIO
TITLE “Satellite”
INDEX 01 13:06:41
TRACK 06 AUDIO
TITLE “When the Walls Came Tumbling Down”
INDEX 01 17:34:00
TRACK 07 AUDIO
TITLE “Wasted”
INDEX 01 22:20:25
TRACK 08 AUDIO
TITLE “Rock Off”
INDEX 01 26:06:00
TRACK 09 AUDIO
TITLE “It Don’t Matter”
INDEX 01 29:50:57
TRACK 10 AUDIO
TITLE “Answer to the Master”
INDEX 01 33:12:40
TRACK 11 AUDIO
TITLE “Overture”
INDEX 01 36:28:08


Leave a Reply

Your email address will not be published. Required fields are marked *

Enter the text from the image below
 

This site uses Akismet to reduce spam. Learn how your comment data is processed.