Def Leppard – Hysteria




No Cover available

Artist: Def Leppard
Year: 1987
Genre: Rock
Notes: Discogs
Add. Notes:
Watch Songs on: YouTube
Cover incl.: Yes
Encoder: FLAC
Bitrate: ~900 kBit/s (44.1 kHz/16 Bit/s)
Log & Cue incl.: Yes/Yes
Size: 455,7 MB
Password: “slam” (without ” “)


All Downloads/Hosters are compatible

Download 1
KatFile.com
Turbobit.net
FileFactory.com
Rapidgator.net
Download 2
KatFile.com
Turbobit.net
FileFactory.com
Rapidgator.net

Tracklist:

1 Woman 5:41
2 Rocket 6:34
3 Animal 4:02
4 Love Bites 5:46
5 Pour Some Sugar On Me 4:25
6 Armageddon It 5:21
7 Gods Of War 6:33
8 Don't Shoot Shotgun 4:19
9 Run Riot 4:39
10 Hysteria 5:49
11 Excitable 4:10
12 Love And Affection 4:35

EAC-Log, CUE-Sheed & NFO:

Click to open spoiler
Def Leppard
Hysteria
p ñ 1987 Bludgeon Riffola / Phonogram (England, original LP, HYSLP 1 / 830 675-1)

1. Women 5.43
2. Rocket 6.38
3. Animal 4.05
4. Love Bites 5.47
5. Pour Some Sugar On Me 4.27
6. Armageddon It 5.25

7. Gods Of War 6.38
8. Don’t Shoot Shotgun 4.29
9. Run Riot 4.40
10. Hysteria 5.57
11. Excitable 4.20
12. Love And Affection 4.38

Total time: 1:02:47

ñîñòîÿíèå âèíèëà: çàïèëåííîñòü ñðåäíÿÿ, USED/VG; çàïèñü îòëè÷íàÿ.
Óñòðîéñòâî âîñïðîèçâåäåíèÿ: Marantz TT 15S1 + GRADO Prestige Gold1
Ïðåäâàðèòåëüíûé óñèëèòåëü: Marantz PM 66 Special Edition
ÀÖÏ: E-MU 1212m PCIe
Ïðîãðàììà-îöèôðîâùèê: Adobe Audition 3.0
Îöèôðîâêà áåç äîïîëíèòåëüíîé îáðàáîòêè.
Ôîðìàò çàïèñè: 24bit / 192kHz
Ôîðìàò ðàçäà÷è: 24bit / 192kHz

PERFORMER “Def Leppard”
TITLE “Hysteria”
REM Total length: 01:02:47
FILE “Def Leppard 1987 Hysteria side1.wav” WAVE
TRACK 01 AUDIO
TITLE “Women”
INDEX 01 00:00:00
TRACK 02 AUDIO
TITLE “Rocket”
INDEX 01 05:43:09
TRACK 03 AUDIO
TITLE “Animal”
INDEX 01 12:20:60
TRACK 04 AUDIO
TITLE “Love Bites”
INDEX 01 16:25:50
TRACK 05 AUDIO
TITLE “Pour Some Sugar On Me”
INDEX 01 22:12:46
TRACK 06 AUDIO
TITLE “Armageddon It”
INDEX 01 26:39:30
FILE “Def Leppard 1987 Hysteria side2.wav” WAVE
TRACK 07 AUDIO
TITLE “Gods Of War”
INDEX 01 00:00:00
TRACK 08 AUDIO
TITLE “Don’t Shoot Shotgun”
INDEX 01 06:38:00
TRACK 09 AUDIO
TITLE “Run Riot”
INDEX 01 11:06:80
TRACK 10 AUDIO
TITLE “Hysteria”
INDEX 01 15:47:10
TRACK 11 AUDIO
TITLE “Excitable”
INDEX 01 21:43:55
TRACK 12 AUDIO
TITLE “Love And Affection”
INDEX 01 26:04:00


0

Publication author

offline 8 hours

Chaos

3
Comments: 4Publics: 3424Registration: 02-02-2019
Spread the Download

Leave a Reply

Your email address will not be published. Required fields are marked *

Enter the text from the image below
 

This site uses Akismet to reduce spam. Learn how your comment data is processed.