Def Leppard – High ‘N’ Dry




No Cover available

Artist: Def Leppard
Year: 1981
Genre: Rock
Notes: Discogs
Add. Notes:
Watch Songs on: YouTube
Cover incl.: Yes
Encoder: FLAC
Bitrate: ~900 kBit/s (44.1 kHz/16 Bit/s)
Log & Cue incl.: Yes/Yes
Size: 312,6 MB
Password: “slam” (without ” “)


All Downloads/Hosters are compatible

Download 1
KatFile.com
Turbobit.net
FileFactory.com
Rapidgator.net
Download 2
KatFile.com
Turbobit.net
FileFactory.com
Rapidgator.net

Tracklist:

1 Let It Go 4:43
2 Another Hit And Run 4:59
3 High 'N' Dry (Saturday Night) 3:25
4 Bringin' On The Heartbreak 4:33
5 Switch 625 3:03
6 You Got Me Runnin' 4:22
7 Lady Strange 4:40
8 On Through The Night 5:06
9 Mirror, Mirror (Look Into My Eyes) 4:07
10 No No No 3:05

EAC-Log, CUE-Sheed & NFO:

Click to open spoiler
Def Leppard
High’n’Dry
p с 1981 Vertigo / Phonogram (Germany, original LP, 6359 045)

1. Let It Go 4.49
2. Another Hit And Run 5.04
3. High’n’Dry (Saturday Night) 3.31
4. Bringin’ On The Heartbreak 4.27
5. Switch 625 3.16

6. You Got Me Runnin’ 4.28
7. Lady Strange 4.42
8. On Through The Night 5.11
9. Mirror, Mirror (Look Into My Eyes) 4.12
10. No No NO 3.21

Total time: 43:01

состояние винила: удивительно хорошо сохранился, EX; прописан замечательно.
Устройство воспроизведения: Marantz TT 15S1 + GRADO Prestige Gold1
Предварительный усилитель: Marantz PM 66 Special Edition
АЦП: E-MU 1212m PCIe
Программа-оцифровщик: Adobe Audition 3.0
Оцифровка без дополнительной обработки.
Формат записи: 24bit / 192kHz
Формат раздачи: 24bit / 192kHz
PERFORMER “Def Leppard”
TITLE “High’n’Dry”
REM Total length: 00:43:01
FILE “Def Leppard 1981 High’n’Dry.wav” WAVE
TRACK 01 AUDIO
TITLE “Let It Go”
INDEX 01 00:00:00
TRACK 02 AUDIO
TITLE “Another Hit And Run”
INDEX 01 04:48:79
TRACK 03 AUDIO
TITLE “High’n’Dry (Saturday Night)”
INDEX 01 09:52:91
TRACK 04 AUDIO
TITLE “Bringin’ On The Heartbreak”
INDEX 01 13:24:11
TRACK 05 AUDIO
TITLE “Switch 625”
INDEX 01 17:51:21
TRACK 06 AUDIO
TITLE “You Got Me Runnin'”
INDEX 01 21:06:74
TRACK 07 AUDIO
TITLE “Lady Strange”
INDEX 01 25:34:79
TRACK 08 AUDIO
TITLE “On Through The Night”
INDEX 01 30:17:00
TRACK 09 AUDIO
TITLE “Mirror, Mirror (Look Into My Eyes)”
INDEX 01 35:28:14
TRACK 10 AUDIO
TITLE “No No No”
INDEX 01 39:40:36


Leave a Reply

Your email address will not be published. Required fields are marked *

Enter the text from the image below
 

This site uses Akismet to reduce spam. Learn how your comment data is processed.