Deep Purple – Who Do We Think We Are!




[Total: 0    Average: 0/5]

Artist: Deep Purple
Year: 1973/1987
Genre: Rock
Notes: Discogs
Add. Notes:
Cover incl.: Yes
Encoder: FLAC
Bitrate: ~900 kBit/s (44.1 kHz/16 Bit/s)
Log & Cue incl.: Yes
Size: 265 MB
Password: “slam” (without ” “)


All Downloads/Hosters are compatible

Download 1
KatFile.com
Turbobit.net
FileFactory.com
Rapidgator.net
Download 2
KatFile.com
Turbobit.net
FileFactory.com
Rapidgator.net

Tracklist:

1 - Woman From Tokyo - 5:52
2 - Mary Long - 4:26
3 - Super Trouper - 2:56
4 - Smooth Dancer - 4:12
5 - Rat Bat Blue - 5:26
6 - Place In Line - 6:33
7 - Our Lady - 5:09

EAC-Log, CUE-Sheed & NFO:

Click to open spoiler
Exact Audio Copy V0.99 prebeta 5 from 4. May 2009

Отчёт EAC об извлечении, выполненном 12. февраля 2011, 19:29

Deep Purple / Who Do We Think We Are

Дисковод: Optiarc DVD RW AD-7240S Adapter: 1 ID: 0

Режим чтения : Достоверность
Использование точного потока : Да
Отключение кэша аудио : Да
Использование указателей C2 : Нет

Коррекция смещения при чтении : 48
Способность читать области Lead-in и Lead-out : Нет
Заполнение пропущенных сэмплов тишиной : Да
Удаление блоков с тишиной в начале и конце : Нет
При вычислениях CRC использовались нулевые сэмплы : Да
Интерфейс : Встроенный Win32-интерфейс для Win NT/2000

Выходной формат : Пользовательский кодировщик
Выбранный битрейт : 768 kBit/s
Качество : Высокий
Добавление ID3-тэга : Нет
Утилита сжатия : C:\Program Files\Exact Audio Copy\FLAC\FLAC.EXE
Дополнительные параметры : -6 -V -T “ARTIST=%a” -T “TITLE=%t” -T “ALBUM=%g” -T “DATE=%y” -T “TRACKNUMBER=%n” -T “GENRE=%m” -T “COMMENT=%e” %s -o %d

TOC извлечённого CD

Трек | Старт | Длительность | Начальный сектор | Конечный сектор
———————————————————————
1 | 0:00.32 | 5:52.18 | 32 | 26449
2 | 5:52.50 | 4:26.35 | 26450 | 46434
3 | 10:19.10 | 2:56.50 | 46435 | 59684
4 | 13:15.60 | 4:12.22 | 59685 | 78606
5 | 17:28.07 | 5:26.38 | 78607 | 103094
6 | 22:54.45 | 6:33.25 | 103095 | 132594
7 | 29:27.70 | 5:09.17 | 132595 | 155786

Характеристики диапазона извлечения и сообщения об ошибках

Выбранный диапазон

Имя файла E:\music\Deep Purple 1 press\Deep Purple – Who Do We Think We Are 1973\Deep Purple – Who Do We Think We Are.wav

Пиковый уровень 100.0 %
Качество диапазона 100.0 %
CRC теста 3551EE73
CRC копии 3551EE73
Копирование… OK

Ошибок не произошло

AccurateRip: сводка

Трек 1 точное извлечение (доверие 40) [B82D29D9]
Трек 2 точное извлечение (доверие 39) [5A02CDC2]
Трек 3 точное извлечение (доверие 39) [E4948B07]
Трек 4 точное извлечение (доверие 39) [5A523A73]
Трек 5 точное извлечение (доверие 39) [A81A28E7]
Трек 6 точное извлечение (доверие 39) [288BB95A]
Трек 7 точное извлечение (доверие 39) [16BF7717]

Все треки извлечены точно

Конец отчёта

REM GENRE Rock
REM DATE 1973
REM DISCID 5C081D07
REM COMMENT “ExactAudioCopy v0.99pb5”
PERFORMER “Deep Purple”
TITLE “Who Do We Think We Are! (1987, CDP 7 48273 2)”
FILE “Deep Purple – Who Do We Think We Are.flac” WAVE
TRACK 01 AUDIO
TITLE “Woman From Tokyo”
PERFORMER “Deep Purple”
INDEX 00 00:00:00
INDEX 01 00:00:32
TRACK 02 AUDIO
TITLE “Mary Long”
PERFORMER “Deep Purple”
INDEX 00 05:50:35
INDEX 01 05:52:50
TRACK 03 AUDIO
TITLE “Super Trouper”
PERFORMER “Deep Purple”
INDEX 00 10:17:12
INDEX 01 10:19:10
TRACK 04 AUDIO
TITLE “Smooth Dancer”
PERFORMER “Deep Purple”
INDEX 00 13:14:62
INDEX 01 13:15:60
TRACK 05 AUDIO
TITLE “Rat Bat Blue”
PERFORMER “Deep Purple”
INDEX 00 17:25:52
INDEX 01 17:28:07
TRACK 06 AUDIO
TITLE “Place in Line”
PERFORMER “Deep Purple”
INDEX 00 22:52:42
INDEX 01 22:54:45
TRACK 07 AUDIO
TITLE “Our Lady”
PERFORMER “Deep Purple”
INDEX 00 29:25:55
INDEX 01 29:27:70


Spread the Download

Leave a Reply

Your email address will not be published. Required fields are marked *

Enter the text from the image below
 

This site uses Akismet to reduce spam. Learn how your comment data is processed.