Deep Purple – Who Do We Think We Are! (Remastered)




Artist: Deep Purple
Year: 1973/2000
Genre: Rock
Notes: Discogs
Add. Notes: Remastered
Encoder: FLAC
Bitrate: ~1000 kBit/s (44.1 kHz/16 Bit/s)
Size: 546 MB
Password: “slam” (without ” “)


http://www.share-online.biz/dl/G6Y32WPPG55 http://www.share-online.biz/dl/HG242WPPL4G4 http://www.share-online.biz/dl/NR342WPPGBD5
https://rapidgator.net/file/c7558a71a58bb59f97ced0e646c930a5/DeePur-1973Who.part1.rar https://rapidgator.net/file/438da0f817551331b9cccdace2e48730/DeePur-1973Who.part2.rar https://rapidgator.net/file/f6f9f9ac36890c5826a1f080b3098e08/DeePur-1973Who.part3.rar
https://ayefiles.com/orao9zm264q2/DeePur-1973Who.part1.rar.html https://ayefiles.com/zgwao8t3qmad/DeePur-1973Who.part2.rar.html https://ayefiles.com/dwndb2vk2cd6/DeePur-1973Who.part3.rar.html
Onlinestatus: Turbobit.net Rapidgator.net AyeFiles.com

Tracklist:

Remastered Edition
1 - Woman From Tokyo - 5:48
2 - Mary Long - 4:23
3 - Super Trouper - 2:54
4 - Smooth Dancer - 4:08
5 - Rat Bat Blue - 5:23
6 - Place In Line - 6:29
7 - Our Lady - 5:12
Bonus Tracks
8 - Woman From Tokyo (1999 
Remix) - 6:37
9 - Woman From Tokyo (Alt. Bridge) - 
1:24
10 - Painted Horse (Studio Out-
Take) - 5:19
11 - Our Lady (1999 Remix) - 6:05
12 - Rat Bat Blue (Writing Session) - 
0:57
13 - Rat Bat Blue (1999 Remix) - 
5:49
14 - First Day Jam (Instrumental) - 
11:31

EAC-Log, CUE-Sheed & NFO:

Click to open spoiler
Exact Audio Copy V1.0 beta 3 from 29. August 2011

EAC extraction logfile from 28. May 2013, 8:06

Deep Purple / Who Do We Think We Are

Used drive : ATAPI iHAS124 B Adapter: 2 ID: 0

Read mode : Secure
Utilize accurate stream : Yes
Defeat audio cache : Yes
Make use of C2 pointers : No

Read offset correction : 6
Overread into Lead-In and Lead-Out : No
Fill up missing offset samples with silence : Yes
Delete leading and trailing silent blocks : No
Null samples used in CRC calculations : Yes
Used interface : Native Win32 interface for Win NT & 2000

Used output format : User Defined Encoder
Selected bitrate : 1024 kBit/s
Quality : High
Add ID3 tag : No
Command line compressor : C:\Program Files (x86)\Exact Audio Copy\FLAC\FLAC.EXE
Additional command line options : -8 -V -T “ARTIST=%artist%” -T “TITLE=%title%” -T “ALBUM=%albumtitle%” -T “DATE=%year%” -T “TRACKNUMBER=%tracknr%” -T “GENRE=%genre%” -T “PERFORMER=%albuminterpret%” -T “COMPOSER=%composer%” %haslyrics%–tag-from-file=LYRICS=”%lyricsfile%”%haslyrics% -T “ALBUMARTIST=%albumartist%” -T “DISCNUMBER=%cdnumber%” -T “TOTALDISCS=%totalcds%” -T “TOTALTRACKS=%numtracks%” -T “COMMENT=%comment%” %source% -o %dest%

TOC of the extracted CD

Track | Start | Length | Start sector | End sector
———————————————————
1 | 0:00.00 | 5:51.52 | 0 | 26376
2 | 5:51.52 | 4:26.10 | 26377 | 46336
3 | 10:17.62 | 2:56.43 | 46337 | 59579
4 | 13:14.30 | 4:13.47 | 59580 | 78601
5 | 17:28.02 | 5:26.68 | 78602 | 103119
6 | 22:54.70 | 6:31.70 | 103120 | 132514
7 | 29:26.65 | 5:20.45 | 132515 | 156559
8 | 34:47.35 | 6:37.30 | 156560 | 186364
9 | 41:24.65 | 1:26.02 | 186365 | 192816
10 | 42:50.67 | 5:21.30 | 192817 | 216921
11 | 48:12.22 | 6:06.35 | 216922 | 244406
12 | 54:18.57 | 0:56.30 | 244407 | 248636
13 | 55:15.12 | 5:49.48 | 248637 | 274859
14 | 61:04.60 | 11:26.60 | 274860 | 326369

Range status and errors

Selected range

Filename G:\CD\Deep Purple – Who Do We Think We Are.wav

Peak level 99.2 %
Extraction speed 6.6 X
Range quality 100.0 %
Test CRC DA2DE309
Copy CRC DA2DE309
Copy OK

No errors occurred

AccurateRip summary

Track 1 accurately ripped (confidence 9) [96C46046] (AR v2)
Track 2 accurately ripped (confidence 9) [5627865D] (AR v2)
Track 3 accurately ripped (confidence 9) [08B095A7] (AR v2)
Track 4 accurately ripped (confidence 10) [42EC3E2C] (AR v2)
Track 5 accurately ripped (confidence 10) [E958F6C2] (AR v2)
Track 6 accurately ripped (confidence 10) [F2301D77] (AR v2)
Track 7 accurately ripped (confidence 10) [AAE45B3D] (AR v2)
Track 8 accurately ripped (confidence 8) [692AC252] (AR v2)
Track 9 accurately ripped (confidence 8) [ADC6E8A3] (AR v2)
Track 10 accurately ripped (confidence 8) [3BA8E2B4] (AR v2)
Track 11 accurately ripped (confidence 8) [F568F0AE] (AR v2)
Track 12 accurately ripped (confidence 8) [6762DF6D] (AR v2)
Track 13 accurately ripped (confidence 8) [DACBB3EB] (AR v2)
Track 14 accurately ripped (confidence 8) [F4F92C8E] (AR v2)

All tracks accurately ripped

End of status report

==== Log checksum EBB515B26CB540DC1F0B332B356B338B25D297566278C05F5FD2017A90156E65 ====

REM GENRE “Hard Rock”
REM DATE 1973
REM DISCID DC10FF0E
REM COMMENT “ExactAudioCopy v1.0b3”
PERFORMER “Deep Purple”
TITLE “Who Do We Think We Are! (2000, 724352160721)”
FILE “Deep Purple – Who Do We Think We Are.flac” WAVE
TRACK 01 AUDIO
TITLE “Woman From Tokyo”
PERFORMER “Deep Purple”
INDEX 01 00:00:00
TRACK 02 AUDIO
TITLE “Mary Long”
PERFORMER “Deep Purple”
INDEX 00 05:50:07
INDEX 01 05:51:52
TRACK 03 AUDIO
TITLE “Super Trouper”
PERFORMER “Deep Purple”
INDEX 00 10:15:52
INDEX 01 10:17:62
TRACK 04 AUDIO
TITLE “Smooth Dancer”
PERFORMER “Deep Purple”
INDEX 00 13:13:22
INDEX 01 13:14:30
TRACK 05 AUDIO
TITLE “Rat Bat Blue”
PERFORMER “Deep Purple”
INDEX 00 17:23:52
INDEX 01 17:28:02
TRACK 06 AUDIO
TITLE “Place In Line”
PERFORMER “Deep Purple”
INDEX 00 22:52:32
INDEX 01 22:54:70
TRACK 07 AUDIO
TITLE “Our Lady”
PERFORMER “Deep Purple”
INDEX 00 29:25:40
INDEX 01 29:26:65
TRACK 08 AUDIO
TITLE “Woman From Tokyo – (’99 Remix)”
PERFORMER “Deep Purple”
INDEX 00 34:39:57
INDEX 01 34:47:35
TRACK 09 AUDIO
TITLE “Woman From Tokyo – (Alt. Bridge)”
PERFORMER “Deep Purple”
INDEX 01 41:24:65
TRACK 10 AUDIO
TITLE “Painted Horse – (Studio Outtake)”
PERFORMER “Deep Purple”
INDEX 00 42:50:10
INDEX 01 42:50:67
TRACK 11 AUDIO
TITLE “Our Lady – (’99 Remix)”
PERFORMER “Deep Purple”
INDEX 00 48:10:67
INDEX 01 48:12:22
TRACK 12 AUDIO
TITLE “Rat Bat Blue – (Writing Session)”
PERFORMER “Deep Purple”
INDEX 00 54:17:15
INDEX 01 54:18:57
TRACK 13 AUDIO
TITLE “Rat Bat Blue – (’99 Remix)”
PERFORMER “Deep Purple”
INDEX 01 55:15:12
TRACK 14 AUDIO
TITLE “First Day Jam – (Instrumental)”
PERFORMER “Deep Purple”
INDEX 00 61:03:62
INDEX 01 61:04:60

Leave a Reply

Your email address will not be published. Required fields are marked *

This site uses Akismet to reduce spam. Learn how your comment data is processed.