Deep Purple – When We Rock, We Rock And When We Roll, We Roll (Japanese Edition)




[Total: 0    Average: 0/5]

Artist: Deep Purple
Year: 1978/1989
Genre: Rock
Notes: Discogs
Add. Notes: Japanese Edition
Cover incl.: Yes
Encoder: FLAC
Bitrate: ~900 kBit/s (44.1 kHz/16 Bit/s)
Log & Cue incl.: Yes
Size: 303 MB
Password: “slam” (without ” “)


All Downloads/Hosters are compatible

Download 1
Share-online.biz
KatFile.com
Rapidgator.net
Mexa.sh
Download 2
Share-online.biz
KatFile.com
Rapidgator.net
Mexa.sh

Tracklist:

1 - Space Truckin' - 4:31
2 - Kentucky Woman - 4:44
3 - Hard Road (Wring That Neck) - 
5:11
4 - Burn - 6:00
5 - Woman From Tokyo (Live) - 5:30
6 - Hush - 4:20
7 - Smoke On The Water - 6:27
8 - Highway Star (Live) - 6:47

EAC-Log, CUE-Sheed & NFO:

Click to open spoiler
Exact Audio Copy V1.0 beta 4 from 7. December 2014

EAC extraction logfile from 22. December 2014, 23:25

Deep Purple / When We Rock, We Rock And When We Roll, We Roll (1989, 18P2-2750)

Used drive : ATAPI iHAS124 B Adapter: 1 ID: 0

Read mode : Secure
Utilize accurate stream : Yes
Defeat audio cache : Yes
Make use of C2 pointers : No

Read offset correction : 6
Overread into Lead-In and Lead-Out : No
Fill up missing offset samples with silence : Yes
Delete leading and trailing silent blocks : No
Null samples used in CRC calculations : Yes
Used interface : Installed external ASPI interface

Used output format : User Defined Encoder
Selected bitrate : 128 kBit/s
Quality : High
Add ID3 tag : Yes
Command line compressor : C:\Program Files (x86)\Exact Audio Copy\Flac\flac.exe
Additional command line options : -V -8 -T “Date=%year%” -T “Genre=%genre%” %source%

TOC of the extracted CD

Track | Start | Length | Start sector | End sector
———————————————————
1 | 0:00.00 | 4:37.12 | 0 | 20786
2 | 4:37.12 | 4:47.10 | 20787 | 42321
3 | 9:24.22 | 5:17.65 | 42322 | 66161
4 | 14:42.12 | 6:03.53 | 66162 | 93439
5 | 20:45.65 | 5:32.57 | 93440 | 118396
6 | 26:18.47 | 4:26.13 | 118397 | 138359
7 | 30:44.60 | 6:30.57 | 138360 | 167666
8 | 37:15.42 | 6:48.03 | 167667 | 198269

Range status and errors

Selected range

Filename G:\CD\Deep Purple – When We Rock, We Rock And When We Roll, We Roll.wav

Peak level 94.1 %
Extraction speed 5.4 X
Range quality 100.0 %
Test CRC E589DC86
Copy CRC E589DC86
Copy OK

No errors occurred

AccurateRip summary

Track 1 accurately ripped (confidence 3) [E8FAD012] (AR v1)
Track 2 accurately ripped (confidence 3) [791EE804] (AR v1)
Track 3 accurately ripped (confidence 3) [7B24589F] (AR v1)
Track 4 accurately ripped (confidence 3) [855C8101] (AR v1)
Track 5 accurately ripped (confidence 3) [CDE8295D] (AR v1)
Track 6 accurately ripped (confidence 3) [BB4D902A] (AR v1)
Track 7 accurately ripped (confidence 3) [D8ECDDFF] (AR v1)
Track 8 accurately ripped (confidence 3) [741110F1] (AR v1)

All tracks accurately ripped

End of status report

—- CUETools DB Plugin V2.1.4

[CTDB TOCID: 9GQnw0RHLilXBifr0KEofgFL6Rg-] found
Submit result: 9GQnw0RHLilXBifr0KEofgFL6Rg- has been confirmed
Track | CTDB Status
1 | (1/1) Accurately ripped
2 | (1/1) Accurately ripped
3 | (1/1) Accurately ripped
4 | (1/1) Accurately ripped
5 | (1/1) Accurately ripped
6 | (1/1) Accurately ripped
7 | (1/1) Accurately ripped
8 | (1/1) Accurately ripped

==== Log checksum 992604496B345C61830AF385F59859AB45552C9F777DDE4E2B9338D132E4F33A ====

REM GENRE Rock
REM DATE 1978
REM DISCID 760A5308
REM COMMENT “ExactAudioCopy v1.0b4”
PERFORMER “Deep Purple”
TITLE “When We Rock, We Rock And When We Roll, We Roll (1989, 18P2-2750)”
FILE “Deep Purple – When We Rock, We Rock And When We Roll, We Roll.flac” WAVE
TRACK 01 AUDIO
TITLE “Space Truckin'”
PERFORMER “Deep Purple”
INDEX 01 00:00:00
TRACK 02 AUDIO
TITLE “Kentucky Woman”
PERFORMER “Deep Purple”
INDEX 00 04:34:07
INDEX 01 04:37:12
TRACK 03 AUDIO
TITLE “Hard Road (Wring That Neck)”
PERFORMER “Deep Purple”
INDEX 00 09:20:67
INDEX 01 09:24:22
TRACK 04 AUDIO
TITLE “Burn”
PERFORMER “Deep Purple”
INDEX 00 14:39:27
INDEX 01 14:42:12
TRACK 05 AUDIO
TITLE “Woman From Tokyo”
PERFORMER “Deep Purple”
INDEX 00 20:43:42
INDEX 01 20:45:65
TRACK 06 AUDIO
TITLE “Hush”
PERFORMER “Deep Purple”
INDEX 00 26:15:15
INDEX 01 26:18:47
TRACK 07 AUDIO
TITLE “Smoke On The Water (live)”
PERFORMER “Deep Purple”
INDEX 00 30:42:50
INDEX 01 30:44:60
TRACK 08 AUDIO
TITLE “Highway Star (live)”
PERFORMER “Deep Purple”
INDEX 00 37:11:67
INDEX 01 37:15:42


Spread the Download

Leave a Reply

Your email address will not be published. Required fields are marked *

Enter the text from the image below
 

This site uses Akismet to reduce spam. Learn how your comment data is processed.