Deep Purple – Total Abandon – Australia ’99




No Cover available

Artist: Deep Purple
Year: 2012
Genre: Rock
Notes: Discogs
Add. Notes:
Watch Songs on: YouTube
Cover incl.: Yes
Encoder: FLAC
Bitrate: ~900 kBit/s (44.1 kHz/16 Bit/s)
Log & Cue incl.: Yes/Yes
Size: 536,1 MB
Password: “slam” (without ” “)


All Downloads/Hosters are compatible

Download 1
KatFile.com
Turbobit.net
Rapidgator.net
FileFactory.com
Download 2
KatFile.com
Turbobit.net
Rapidgator.net
FileFactory.com

Tracklist:

1 Ted The Mechanic 
2 Strange Kind Of Woman 
3 Bloodsucker 
4 Pictures Of Home 
5 Almost Human 
6 Woman From Tokyo 
7 Watching The Sky 
8 Fireball 
9 Sometimes I Feel Like Screaming 
10 Smoke On The Water 
11 Black Night 
12 Highway Star

EAC-Log, CUE-Sheed & NFO:

Click to open spoiler
Exact Audio Copy V1.0 beta 3 from 29. August 2011

EAC extraction logfile from 19. July 2013, 8:06

Deep Purple / Total Abandon Australia ’99

Used drive : ATAPI iHAS124 B Adapter: 2 ID: 0

Read mode : Secure
Utilize accurate stream : Yes
Defeat audio cache : Yes
Make use of C2 pointers : No

Read offset correction : 6
Overread into Lead-In and Lead-Out : No
Fill up missing offset samples with silence : Yes
Delete leading and trailing silent blocks : No
Null samples used in CRC calculations : Yes
Used interface : Native Win32 interface for Win NT & 2000

Used output format : User Defined Encoder
Selected bitrate : 1024 kBit/s
Quality : High
Add ID3 tag : No
Command line compressor : C:\Program Files (x86)\Exact Audio Copy\FLAC\FLAC.EXE
Additional command line options : -8 -V -T “ARTIST=%artist%” -T “TITLE=%title%” -T “ALBUM=%albumtitle%” -T “DATE=%year%” -T “TRACKNUMBER=%tracknr%” -T “GENRE=%genre%” -T “PERFORMER=%albuminterpret%” -T “COMPOSER=%composer%” %haslyrics%–tag-from-file=LYRICS=”%lyricsfile%”%haslyrics% -T “ALBUMARTIST=%albumartist%” -T “DISCNUMBER=%cdnumber%” -T “TOTALDISCS=%totalcds%” -T “TOTALTRACKS=%numtracks%” -T “COMMENT=%comment%” %source% -o %dest%

TOC of the extracted CD

Track | Start | Length | Start sector | End sector
———————————————————
1 | 0:00.00 | 4:30.23 | 0 | 20272
2 | 4:30.23 | 5:48.08 | 20273 | 46380
3 | 10:18.31 | 4:19.38 | 46381 | 65843
4 | 14:37.69 | 8:18.27 | 65844 | 103220
5 | 22:56.21 | 6:32.05 | 103221 | 132625
6 | 29:28.26 | 5:55.44 | 132626 | 159294
7 | 35:23.70 | 5:04.66 | 159295 | 182160
8 | 40:28.61 | 4:03.11 | 182161 | 200396
9 | 44:31.72 | 7:05.08 | 200397 | 232279
10 | 51:37.05 | 8:48.40 | 232280 | 271919
11 | 60:25.45 | 6:18.10 | 271920 | 300279
12 | 66:43.55 | 7:10.42 | 300280 | 332571

Range status and errors

Selected range

Filename G:\CD\Deep Purple – Total Abandon Australia ’99.wav

Peak level 91.8 %
Extraction speed 6.7 X
Range quality 100.0 %
Test CRC 03206BF5
Copy CRC 03206BF5
Copy OK

No errors occurred

AccurateRip summary

Track 1 not present in database
Track 2 not present in database
Track 3 not present in database
Track 4 not present in database
Track 5 not present in database
Track 6 not present in database
Track 7 not present in database
Track 8 not present in database
Track 9 not present in database
Track 10 not present in database
Track 11 not present in database
Track 12 not present in database

None of the tracks are present in the AccurateRip database

End of status report

==== Log checksum 967E3C427AFDB453D061EB04D06A3419EDACB1BA5FF0257A725D8FA4399A8907 ====

REM GENRE “Hard Rock”
REM DATE 1999
REM DISCID A411520C
REM COMMENT “ExactAudioCopy v1.0b3”
PERFORMER “Deep Purple”
TITLE “Total Abandon Australia ’99 (2012, EAGCD477)”
FILE “Deep Purple – Total Abandon Australia ’99.flac” WAVE
TRACK 01 AUDIO
TITLE “Ted The Mechanic”
PERFORMER “Deep Purple”
INDEX 01 00:00:00
TRACK 02 AUDIO
TITLE “Strange Kind Of Woman”
PERFORMER “Deep Purple”
INDEX 01 04:30:23
TRACK 03 AUDIO
TITLE “Bloodsucker”
PERFORMER “Deep Purple”
INDEX 01 10:18:31
TRACK 04 AUDIO
TITLE “Pictures Of Home”
PERFORMER “Deep Purple”
INDEX 01 14:37:69
TRACK 05 AUDIO
TITLE “Almost Human”
PERFORMER “Deep Purple”
INDEX 01 22:56:21
TRACK 06 AUDIO
TITLE “Woman From Tokyo”
PERFORMER “Deep Purple”
INDEX 01 29:28:26
TRACK 07 AUDIO
TITLE “Watching The Sky”
PERFORMER “Deep Purple”
INDEX 01 35:23:70
TRACK 08 AUDIO
TITLE “Fireball”
PERFORMER “Deep Purple”
INDEX 01 40:28:61
TRACK 09 AUDIO
TITLE “Sometimes I Feel Like Screaming”
PERFORMER “Deep Purple”
INDEX 01 44:31:72
TRACK 10 AUDIO
TITLE “Smoke On The Water”
PERFORMER “Deep Purple”
INDEX 01 51:37:05
TRACK 11 AUDIO
TITLE “Black Night”
PERFORMER “Deep Purple”
INDEX 01 60:25:45
TRACK 12 AUDIO
TITLE “Highway Star”
PERFORMER “Deep Purple”
INDEX 01 66:43:55


Leave a Reply

Your email address will not be published. Required fields are marked *

Enter the text from the image below
 

This site uses Akismet to reduce spam. Learn how your comment data is processed.