Deep Purple – ..To The Rising Sun (In Tokyo)




No Cover available

Artist: Deep Purple
Year: 2016
Genre: Rock
Notes: Discogs
Add. Notes:
Watch Songs on: YouTube
Cover incl.: Yes
Encoder: FLAC
Bitrate: ~1000 kBit/s (44.1 kHz/16 Bit/s)
Log & Cue incl.: Yes/Yes
Size: 842,2 MB
Password: “slam” (without ” “)


All Downloads/Hosters are compatible

Download 1
KatFile.com
Turbobit.net
Rapidgator.net
FileFactory.com
Download 2
KatFile.com
Turbobit.net
Rapidgator.net
FileFactory.com

Tracklist:

1-1 Apr├Ęs Vous 5:09
1-2 Into The Fire 3:21
1-3 Hard Lovin' Man 6:47
1-4 Strange Kind Of Woman 6:32
1-5 Vincent Price 4:42
1-6 Contact Lost 2:58
1-7 Uncommon Man 7:05
1-8 The Well-Dressed Guitar 2:50
1-9 The Mule 6:21
1-10 Above And Beyond 5:10
1-11 Lazy 8:45
2-1 Hell To Pay 5:19
2-2 Don Airey's Solo 6:15
2-3 Perfect Strangers 6:07
2-4 Space Truckin' 6:00
2-5 Smoke On The Water 7:37
2-6 Green Onions / Hush 9:56
2-7 Black Night 7:45 

EAC-Log, CUE-Sheed & NFO:

Click to open spoiler
Exact Audio Copy V1.0 beta 4 from 7. December 2014

EAC extraction logfile from 30. September 2015, 21:43

Deep Purple / …To The Rising Sun. In Tokyo CD1 (2015, 2CD+DVD, 0210547EMU)

Used drive : ATAPI iHAS124 B Adapter: 1 ID: 0

Read mode : Secure
Utilize accurate stream : Yes
Defeat audio cache : Yes
Make use of C2 pointers : No

Read offset correction : 6
Overread into Lead-In and Lead-Out : No
Fill up missing offset samples with silence : Yes
Delete leading and trailing silent blocks : No
Null samples used in CRC calculations : Yes
Used interface : Installed external ASPI interface

Used output format : User Defined Encoder
Selected bitrate : 128 kBit/s
Quality : High
Add ID3 tag : Yes
Command line compressor : C:\Program Files (x86)\Exact Audio Copy\Flac\flac.exe
Additional command line options : -V -8 -T “Date=%year%” -T “Genre=%genre%” %source%

TOC of the extracted CD

Track | Start | Length | Start sector | End sector
———————————————————
1 | 0:00.00 | 5:09.17 | 0 | 23191
2 | 5:09.17 | 3:21.28 | 23192 | 38294
3 | 8:30.45 | 6:47.65 | 38295 | 68884
4 | 15:18.35 | 6:32.06 | 68885 | 98290
5 | 21:50.41 | 4:42.22 | 98291 | 119462
6 | 26:32.63 | 2:58.69 | 119463 | 132881
7 | 29:31.57 | 7:05.74 | 132882 | 164830
8 | 36:37.56 | 2:50.08 | 164831 | 177588
9 | 39:27.64 | 6:21.54 | 177589 | 206217
10 | 45:49.43 | 5:10.01 | 206218 | 229468
11 | 50:59.44 | 8:45.37 | 229469 | 268880

Range status and errors

Selected range

Filename G:\CD\Deep Purple – To The Rising Sun CD1.wav

Peak level 97.7 %
Extraction speed 5.8 X
Range quality 100.0 %
Test CRC 077CCC34
Copy CRC 077CCC34
Copy OK

No errors occurred

AccurateRip summary

Track 1 not present in database
Track 2 not present in database
Track 3 not present in database
Track 4 not present in database
Track 5 not present in database
Track 6 not present in database
Track 7 not present in database
Track 8 not present in database
Track 9 not present in database
Track 10 not present in database
Track 11 not present in database

None of the tracks are present in the AccurateRip database

End of status report

—- CUETools DB Plugin V2.1.4

[CTDB TOCID: C4HrBQ18r6jf8sfNhDo3XrFNw2o-] found
Submit result: C4HrBQ18r6jf8sfNhDo3XrFNw2o- has been confirmed
Track | CTDB Status
1 | (9/9) Accurately ripped
2 | (9/9) Accurately ripped
3 | (9/9) Accurately ripped
4 | (9/9) Accurately ripped
5 | (9/9) Accurately ripped
6 | (9/9) Accurately ripped
7 | (9/9) Accurately ripped
8 | (9/9) Accurately ripped
9 | (9/9) Accurately ripped
10 | (9/9) Accurately ripped
11 | (9/9) Accurately ripped

==== Log checksum BAC889B40B94EACAE5D58B332733A60A842704B0C212B18BA51B748A0A4B2F51 ====

Exact Audio Copy V1.0 beta 4 from 7. December 2014

EAC extraction logfile from 30. September 2015, 22:43

Deep Purple / …To The Rising Sun. In Tokyo CD2 (2015, 2CD+DVD, 0210547EMU)

Used drive : ATAPI iHAS124 B Adapter: 1 ID: 0

Read mode : Secure
Utilize accurate stream : Yes
Defeat audio cache : Yes
Make use of C2 pointers : No

Read offset correction : 6
Overread into Lead-In and Lead-Out : No
Fill up missing offset samples with silence : Yes
Delete leading and trailing silent blocks : No
Null samples used in CRC calculations : Yes
Used interface : Installed external ASPI interface

Used output format : User Defined Encoder
Selected bitrate : 128 kBit/s
Quality : High
Add ID3 tag : Yes
Command line compressor : C:\Program Files (x86)\Exact Audio Copy\Flac\flac.exe
Additional command line options : -V -8 -T “Date=%year%” -T “Genre=%genre%” %source%

TOC of the extracted CD

Track | Start | Length | Start sector | End sector
———————————————————
1 | 0:00.00 | 5:19.66 | 0 | 23990
2 | 5:19.66 | 6:15.40 | 23991 | 52155
3 | 11:35.31 | 6:07.33 | 52156 | 79713
4 | 17:42.64 | 6:00.14 | 79714 | 106727
5 | 23:43.03 | 7:37.03 | 106728 | 141005
6 | 31:20.06 | 9:56.36 | 141006 | 185741
7 | 41:16.42 | 7:45.18 | 185742 | 220634

Range status and errors

Selected range

Filename G:\CD\Deep Purple – To The Rising Sun CD2.wav

Peak level 97.7 %
Extraction speed 5.5 X
Range quality 100.0 %
Test CRC D39D7422
Copy CRC D39D7422
Copy OK

No errors occurred

AccurateRip summary

Track 1 not present in database
Track 2 not present in database
Track 3 not present in database
Track 4 not present in database
Track 5 not present in database
Track 6 not present in database
Track 7 not present in database

None of the tracks are present in the AccurateRip database

End of status report

—- CUETools DB Plugin V2.1.4

[CTDB TOCID: VwapsjYpImTPfz5p1PhnoteOKJU-] found
Submit result: already submitted
Track | CTDB Status
1 | (10/10) Accurately ripped
2 | (10/10) Accurately ripped
3 | (10/10) Accurately ripped
4 | (10/10) Accurately ripped
5 | (10/10) Accurately ripped
6 | (10/10) Accurately ripped
7 | (10/10) Accurately ripped

==== Log checksum 091FE848009D8525626EFB37B882972A1D2F4E7F674A86F4C262F9D0401406AE ====

REM GENRE “Hard Rock”
REM DATE 2015
REM DISCID 880E010B
REM COMMENT “ExactAudioCopy v1.0b4”
PERFORMER “Deep Purple”
TITLE “…To The Rising Sun. In Tokyo CD1 (2015, 2CD+DVD, 0210547EMU)”
FILE “Deep Purple – To The Rising Sun CD1.flac” WAVE
TRACK 01 AUDIO
TITLE “Apres Vous”
PERFORMER “Deep Purple”
INDEX 01 00:00:00
TRACK 02 AUDIO
TITLE “Into The Fire”
PERFORMER “Deep Purple”
INDEX 01 05:09:17
TRACK 03 AUDIO
TITLE “Hard LovinMan”
PERFORMER “Deep Purple”
INDEX 01 08:30:45
TRACK 04 AUDIO
TITLE “Strange Kind Of Woman”
PERFORMER “Deep Purple”
INDEX 01 15:18:35
TRACK 05 AUDIO
TITLE “Vincent Price”
PERFORMER “Deep Purple”
INDEX 01 21:50:41
TRACK 06 AUDIO
TITLE “Contact Lost”
PERFORMER “Deep Purple”
INDEX 01 26:32:63
TRACK 07 AUDIO
TITLE “Uncommon Man”
PERFORMER “Deep Purple”
INDEX 01 29:31:57
TRACK 08 AUDIO
TITLE “The Well-Dressed Guitar”
PERFORMER “Deep Purple”
INDEX 01 36:37:56
TRACK 09 AUDIO
TITLE “The Mule”
PERFORMER “Deep Purple”
INDEX 01 39:27:64
TRACK 10 AUDIO
TITLE “Above And Beyond”
PERFORMER “Deep Purple”
INDEX 01 45:49:43
TRACK 11 AUDIO
TITLE “Lazy”
PERFORMER “Deep Purple”
INDEX 01 50:59:44

REM GENRE “Hard Rock”
REM DATE 2015
REM DISCID 5D0B7D07
REM COMMENT “ExactAudioCopy v1.0b4”
PERFORMER “Deep Purple”
TITLE “…To The Rising Sun. In Tokyo CD2 (2015, 2CD+DVD, 0210547EMU)”
FILE “Deep Purple – To The Rising Sun CD2.flac” WAVE
TRACK 01 AUDIO
TITLE “Hell To Pay”
PERFORMER “Deep Purple”
INDEX 01 00:00:00
TRACK 02 AUDIO
TITLE “Don Airey`s Solo”
PERFORMER “Deep Purple”
INDEX 01 05:19:66
TRACK 03 AUDIO
TITLE “Perfect Strangers”
PERFORMER “Deep Purple”
INDEX 01 11:35:31
TRACK 04 AUDIO
TITLE “Space Truckin”
PERFORMER “Deep Purple”
INDEX 01 17:42:64
TRACK 05 AUDIO
TITLE “Smoke On The Water”
PERFORMER “Deep Purple”
INDEX 01 23:43:03
TRACK 06 AUDIO
TITLE “Green Onions / Hush”
PERFORMER “Deep Purple”
INDEX 01 31:20:06
TRACK 07 AUDIO
TITLE “Black Night”
PERFORMER “Deep Purple”
INDEX 01 41:16:42


Leave a Reply

Your email address will not be published. Required fields are marked *

Enter the text from the image below
 

This site uses Akismet to reduce spam. Learn how your comment data is processed.